<?xml version="1.0" standalone="no"?>
<!DOCTYPE svg PUBLIC "-//W3C//DTD SVG 1.1//EN" "http://www.w3.org/Graphics/SVG/1.1/DTD/svg11.dtd" >
<svg xmlns="http://www.w3.org/2000/svg" xmlns:xlink="http://www.w3.org/1999/xlink" version="1.1">
<metadata></metadata>
<defs>
<font id="univers_condensedmedium" horiz-adv-x="944" >
<font-face units-per-em="2048" ascent="1638" descent="-410" />
<missing-glyph horiz-adv-x="453" />
<glyph horiz-adv-x="0" />
<glyph unicode="&#xd;" horiz-adv-x="453" />
<glyph unicode=" "  horiz-adv-x="453" />
<glyph unicode="&#x09;" horiz-adv-x="453" />
<glyph unicode="&#xa0;" horiz-adv-x="453" />
<glyph unicode="!" horiz-adv-x="604" d="M202 0v214h209v-214h-209zM202 1397h209l-36 -1036h-137z" />
<glyph unicode="&#x22;" horiz-adv-x="755" d="M128 1397h202l-33 -446h-136zM439 1397h202l-33 -446h-136z" />
<glyph unicode="#" d="M56 385l28 117h108l101 386h-118l28 117h120l102 392h127l-102 -392h198l101 392h130l-101 -392h118l-28 -117h-120l-91 -353v-33h120l-28 -117h-130l-100 -385h-130l100 385h-199l-101 -385h-127l101 385h-107zM328 502h190l100 386h-198l-92 -353v-33z" />
<glyph unicode="$" d="M176 480v36h181v-48q0 -135 115 -135q57 0 93 30q36 31 36 92q0 58 -33 91q-32 34 -109 90l-113 79q-79 55 -116 112t-37 144q0 181 198 229v238h167v-231q101 -16 157 -69q26 -24 42 -66q17 -42 17 -169h-181l-1 59q0 57 -31 83t-78 26q-50 0 -80 -25q-29 -25 -29 -75 q0 -58 39 -94q40 -35 116 -82q173 -114 213 -175t40 -151q0 -101 -54 -173q-54 -71 -170 -92v-253h-167v253q-215 14 -215 276z" />
<glyph unicode="%" horiz-adv-x="1360" d="M149 833v60v293q0 134 56 180q57 46 153 46q114 0 164 -51q51 -51 51 -170v-298v-59q0 -126 -64 -161q-63 -34 -148 -34q-110 0 -161 41q-51 42 -51 153zM291 831q0 -54 19 -71t54 -17q29 0 48 17q19 18 19 69v60v328q0 91 -70 91t-70 -95v-324v-58zM342 -87l553 1520 h116l-553 -1520h-116zM795 177v62v312q0 207 209 207q107 0 161 -49t54 -166v-304v-68q0 -113 -57 -150q-56 -36 -155 -36q-100 0 -156 38t-56 154zM937 169q0 -44 18 -62q19 -18 55 -18q33 0 50 19t17 72v55v317q0 102 -70 102t-70 -109v-310v-66z" />
<glyph unicode="&#x26;" horiz-adv-x="1246" d="M114 391q0 129 62 229q63 101 213 184q-80 95 -118 177q-37 83 -37 167q0 107 88 185q89 79 252 79q187 0 266 -80q80 -79 80 -195q0 -111 -68 -197q-67 -86 -213 -180l302 -376q26 82 26 214v209h160v-203q0 -125 -20 -214q-20 -88 -58 -135l-1 -12l198 -243h-205 l-104 116q-77 -65 -160 -98q-82 -33 -202 -33q-226 0 -344 116q-117 117 -117 290zM295 405q0 -114 76 -196q76 -81 189 -81q62 0 134 25q73 26 140 84l-349 450q-108 -74 -149 -138t-41 -144zM415 1133q0 -66 43 -134q44 -68 90 -122q89 58 140 111q51 54 51 129 q0 59 -38 105q-38 47 -127 47q-69 0 -114 -38t-45 -98z" />
<glyph unicode="'" horiz-adv-x="453" d="M134 1397h202l-33 -446h-136z" />
<glyph unicode="(" horiz-adv-x="453" d="M102 622q0 -343 155 -813h128q-119 452 -119 782q0 302 119 806h-128q-125 -424 -140 -553t-15 -222z" />
<glyph unicode=")" horiz-adv-x="453" d="M86 -191q119 452 119 782q0 302 -119 806h128q125 -424 140 -553t15 -222q0 -343 -155 -813h-128z" />
<glyph unicode="*" d="M178 1049v140l223 -30l-131 190l109 63l94 -220l95 220l109 -63l-131 -190l223 30v-140l-223 30l131 -190l-109 -63l-95 220l-94 -220l-109 63l131 190z" />
<glyph unicode="+" horiz-adv-x="1360" d="M297 509v124h342v342h124v-342h342v-124h-342v-342h-124v342h-342z" />
<glyph unicode="," horiz-adv-x="453" d="M59 -211l95 446h204l-173 -446h-126z" />
<glyph unicode="-" horiz-adv-x="453" d="M89 429v157h268v-157h-268z" />
<glyph unicode="." horiz-adv-x="453" d="M126 0v214h214v-214h-214z" />
<glyph unicode="/" horiz-adv-x="453" d="M74 -153l203 1550h124l-203 -1550h-124z" />
<glyph unicode="0" d="M99 391v46v392q0 213 5 312q6 99 72 164q106 107 304 107q282 0 356 -201q24 -61 24 -245v-548q0 -230 -93 -332q-92 -101 -288 -101q-168 0 -274 92q-106 93 -106 314zM280 390q0 -140 60 -195q61 -54 140 -54q82 0 140 53q59 53 59 212v31v559q0 154 -48 207t-156 53 q-90 0 -143 -47q-52 -47 -52 -189v-51v-579z" />
<glyph unicode="1" d="M223 1055v165q85 47 124 79q40 32 121 98h159v-1397h-181v1186q-56 -46 -106 -78q-50 -31 -117 -53z" />
<glyph unicode="2" d="M116 0v176q61 76 250 295q134 160 215 311q82 151 82 284q0 80 -44 135q-43 55 -143 55q-81 0 -125 -38q-43 -37 -43 -116v-34v-42h-181v59v14q0 157 90 235q91 78 260 78q189 0 278 -93q89 -92 89 -240q0 -55 -12 -113q-12 -57 -35 -111q-58 -137 -172 -292 q-113 -155 -328 -407h561v-156h-742z" />
<glyph unicode="3" d="M108 349v52h181v-84q0 -91 54 -141q38 -35 105 -35q99 0 150 53q60 60 60 205v19q0 259 -221 259h-32v156q78 0 145 19q68 20 88 87q17 58 17 119q0 112 -43 155q-42 43 -126 43q-91 0 -136 -49q-44 -49 -44 -144v-52h-181v57q0 173 92 258q92 86 261 86q163 0 260 -77 q98 -77 98 -261q0 -158 -48 -228t-147 -95q104 -28 151 -93t47 -248q0 -170 -38 -246q-89 -179 -342 -179q-175 0 -263 96q-88 97 -88 268z" />
<glyph unicode="4" d="M42 342v148l438 907h246v-899h170v-156h-170v-342h-181v342h-503zM203 498h342v714z" />
<glyph unicode="5" d="M131 297v60h181v-28q0 -93 39 -141q39 -47 121 -47q117 0 159 92q30 63 30 232v44q0 30 -3 81q-10 171 -162 171q-71 0 -121 -40t-52 -146h-184l17 822h652v-156h-485l-14 -445q65 72 126 96q62 25 132 25q188 0 243 -146q32 -79 32 -258q0 -168 -26 -306 q-43 -222 -338 -222q-173 0 -260 78t-87 234z" />
<glyph unicode="6" d="M116 420v167v154q0 281 30 419q59 252 363 252q155 0 251 -73t96 -249v-79h-181q-1 71 -5 102q-20 143 -163 143q-92 0 -151 -58q-59 -57 -59 -281v-113l6 4q86 62 142 76q56 15 108 15q161 0 235 -98t74 -338v-32q0 -258 -102 -352q-101 -94 -271 -94q-168 0 -271 88 q-102 88 -102 347zM294 440q0 -165 43 -232q44 -67 154 -67q99 0 144 68q46 69 46 238v13q0 151 -44 217t-143 66q-95 0 -148 -63q-52 -63 -52 -226v-14z" />
<glyph unicode="7" d="M134 1241v156h699v-147l-413 -1250h-218l461 1241h-529z" />
<glyph unicode="8" d="M99 371q0 161 45 250q45 90 171 118q-62 16 -114 56q-51 40 -70 109q-17 64 -17 132q0 189 97 282q97 94 267 94q157 0 247 -86t90 -282q0 -142 -47 -205q-46 -62 -131 -100q106 -21 157 -104t51 -232q0 -224 -97 -321t-279 -97q-172 0 -271 86q-99 87 -99 300zM280 391 q0 -139 48 -195q48 -55 144 -55q108 0 150 65t42 220q0 129 -46 182q-45 54 -143 54q-106 0 -151 -67q-44 -67 -44 -204zM295 1037q0 -118 46 -169q47 -50 122 -50q69 0 120 46q51 47 51 187q0 205 -166 205q-81 0 -127 -54t-46 -165z" />
<glyph unicode="9" d="M99 934q0 209 37 291q86 187 336 187q228 0 320 -157q53 -88 53 -409v-42q0 -330 -24 -516q-37 -303 -372 -303q-186 0 -265 86q-79 87 -79 235v80h181v-33q0 -106 43 -159t128 -53q172 0 190 151q17 138 17 301q-119 -95 -256 -95q-239 0 -289 214q-20 89 -20 222z M280 950q0 -173 46 -235q47 -61 141 -61q89 0 144 62q56 63 56 244q0 127 -23 190q-38 106 -174 106q-135 0 -170 -120q-20 -68 -20 -186z" />
<glyph unicode=":" horiz-adv-x="453" d="M126 0v214h214v-214h-214zM126 741v214h214v-214h-214z" />
<glyph unicode=";" horiz-adv-x="453" d="M59 -211l95 446h204l-173 -446h-126zM126 741v214h214v-214h-214z" />
<glyph unicode="&#x3c;" horiz-adv-x="2039" d="M411 547l1219 -550v135l-1043 482l1043 498v135l-1219 -565v-135z" />
<glyph unicode="=" horiz-adv-x="1360" d="M297 393v124h788v-124h-788zM297 606v124h788v-124h-788z" />
<glyph unicode="&#x3e;" horiz-adv-x="2039" d="M411 -3v135l1043 482l-1043 498v135l1219 -565v-135z" />
<glyph unicode="?" horiz-adv-x="868" d="M135 1008v107q0 134 76 215q76 82 237 82t244 -67q84 -67 84 -244v-29q0 -133 -56 -211q-55 -78 -155 -190q-52 -61 -52 -121v-187h-157v222q0 67 32 117q33 51 120 153q58 64 65 110q8 47 8 118q0 111 -31 145q-30 34 -97 34q-55 0 -89 -37t-34 -132v-85h-195zM330 0 v214h209v-214h-209z" />
<glyph unicode="@" horiz-adv-x="1360" d="M119 305v596q0 526 553 526q302 0 436 -124t134 -382v-498q0 -167 -56 -228q-56 -60 -155 -60q-78 0 -129 34q-50 34 -61 116q-53 -152 -213 -152q-113 0 -173 65q-60 66 -60 225v275q0 298 229 298q55 0 90 -18q36 -18 85 -58v61h169v-599q0 -57 10 -77q11 -20 39 -20 q25 0 40 22q15 23 15 118v503q0 173 -100 261q-99 89 -291 89q-390 0 -390 -378v-598q0 -239 94 -322q95 -83 285 -83q79 0 141 12q62 13 149 41v-156q0 -1 -105 -24q-105 -22 -210 -22q-266 0 -396 114t-130 443zM565 421q0 -139 105 -139q50 0 85 36t35 103v274 q0 162 -107 162q-118 0 -118 -174v-262z" />
<glyph unicode="A" horiz-adv-x="1057" d="M0 1412zM81 0l327 1397h253l327 -1397h-202l-69 320h-379l-70 -320h-187zM372 478h308l-149 744zM538 1516zM783 0z" />
<glyph unicode="B" horiz-adv-x="1020" d="M145 0v1397h349q230 0 319 -96q90 -96 90 -265q0 -146 -60 -223q-59 -77 -193 -95q169 -10 229 -103q60 -92 60 -236q0 -172 -78 -276q-78 -103 -292 -103h-58h-366zM338 158h150q153 0 205 60q53 60 53 190q0 111 -54 171q-53 61 -204 61h-150v-482zM338 798h145 q133 0 180 53t47 176q0 96 -48 154q-47 58 -179 58h-145v-441z" />
<glyph unicode="C" horiz-adv-x="1020" d="M142 392v589q0 243 103 337q104 94 291 94q184 0 274 -84q90 -83 90 -252v-95h-193v74q0 98 -37 148q-37 51 -126 51q-93 0 -151 -49q-58 -48 -58 -173v-64v-606q0 -123 55 -171t134 -48q97 0 140 68t43 211v39h193v-67q0 -227 -95 -318t-275 -91q-193 0 -291 88 q-97 88 -97 319zM503 0zM536 1516z" />
<glyph unicode="D" horiz-adv-x="1057" d="M0 1412zM139 0v1397h341q250 0 355 -98q106 -98 106 -344v-541q0 -235 -96 -325q-95 -89 -239 -89h-97h-370zM332 158h177q154 0 196 67q43 67 43 230v488q0 193 -60 244q-60 52 -179 52h-177v-1081zM493 1516z" />
<glyph unicode="E" horiz-adv-x="868" d="M0 1412zM136 0v1397h639v-158h-446v-448h419v-158h-419v-475h458v-158h-651zM475 1516zM588 0z" />
<glyph unicode="F" horiz-adv-x="831" d="M136 0v1397h609v-158h-416v-448h401v-158h-401v-633h-193z" />
<glyph unicode="G" horiz-adv-x="1057" d="M133 367v47v580q0 234 107 326t303 92q197 0 294 -88q98 -88 98 -260v-68h-193v20q0 132 -50 185q-49 53 -139 53q-115 0 -171 -63t-56 -201v-539v-53q0 -158 58 -207q59 -48 165 -48q82 0 193 38v403h-208v158h401v-692q-181 -65 -392 -65q-207 0 -309 87 q-101 87 -101 295zM547 0zM547 1516z" />
<glyph unicode="H" horiz-adv-x="1057" d="M133 0v1397h193v-592h402v592h193v-1397h-193v647h-402v-647h-193z" />
<glyph unicode="I" horiz-adv-x="453" d="M0 1412zM139 0v1397h193v-1397h-193zM214 0zM236 1516z" />
<glyph unicode="J" horiz-adv-x="868" d="M51 336v80h193v-43q0 -112 37 -171q38 -59 117 -59q67 0 112 44q46 44 46 200v50v960h193v-943v-90q0 -213 -97 -296t-255 -83q-171 0 -259 82q-87 83 -87 269z" />
<glyph unicode="K" horiz-adv-x="1020" d="M148 0v1397h193v-1397h-193zM341 764l413 633h211l-419 -633l419 -764h-223zM553 0z" />
<glyph unicode="L" horiz-adv-x="793" d="M0 1412zM133 0v1397h193v-1239h416v-158h-609zM276 1516zM466 0z" />
<glyph unicode="M" horiz-adv-x="1397" d="M136 0v1397h313l259 -1108l257 1108h313v-1397h-181v1206l-295 -1206h-190l-295 1206v-1206h-181z" />
<glyph unicode="N" horiz-adv-x="1095" d="M0 1412zM133 0v1397h304l365 -1173v1173h181v-1397h-295l-374 1201v-1201h-181zM565 0zM588 1516z" />
<glyph unicode="O" horiz-adv-x="1057" d="M136 419v62v534q0 229 116 313q117 84 285 84q183 0 292 -93q109 -92 109 -297v-78v-517q0 -281 -109 -362q-109 -80 -286 -80q-206 0 -307 85q-100 85 -100 349zM329 436q0 -189 60 -241q61 -52 148 -52q85 0 146 53q62 53 62 235v515v42q0 160 -60 213q-59 53 -148 53 q-81 0 -145 -49q-63 -48 -63 -226v-497v-46zM537 1516z" />
<glyph unicode="P" d="M136 0v1397h302h68q204 0 288 -96q85 -95 85 -276q0 -214 -92 -314q-91 -100 -273 -100h-185v-611h-193zM329 769h156q107 0 154 50t47 192q0 119 -50 173q-50 55 -180 55h-127v-470z" />
<glyph unicode="Q" horiz-adv-x="1057" d="M130 449v49v492q0 236 113 329q114 93 291 93q169 0 283 -87q115 -86 115 -304v-99v-403q0 -99 -18 -204q-17 -104 -79 -157l186 12v-170h-195q-41 0 -146 -8q-104 -7 -188 -7q-196 0 -279 89t-83 375zM323 483q0 -215 49 -278q49 -62 166 -62q98 0 149 57q52 57 52 299 v495q0 144 -52 202q-51 58 -159 58q-88 0 -147 -49q-58 -48 -58 -215v-101v-406z" />
<glyph unicode="R" horiz-adv-x="1020" d="M0 1412zM136 0v1397h320h113q175 0 257 -90q83 -89 83 -259q0 -139 -53 -228t-218 -110q128 -6 176 -63q49 -57 52 -173q10 -358 55 -474h-205q-39 192 -43 437q-1 102 -50 149q-48 47 -162 47h-132v-633h-193zM329 791h138q146 0 197 54q52 54 52 195q0 108 -50 153 q-50 46 -189 46h-148v-448zM519 1516zM544 0z" />
<glyph unicode="S" horiz-adv-x="982" d="M89 369v106h193v-82q0 -135 54 -193q54 -57 152 -57q105 0 165 56q61 56 61 162q0 89 -45 141q-44 52 -179 120q-265 137 -318 228t-53 209q0 186 104 269q105 84 290 84q184 0 274 -78q90 -77 90 -249v-104h-193v60q0 96 -34 154q-34 59 -139 59q-106 0 -153 -56 q-46 -55 -46 -137q0 -107 74 -163t216 -129q198 -98 251 -188q54 -90 54 -218q0 -210 -116 -294q-115 -84 -299 -84q-224 0 -314 106q-89 106 -89 278zM492 0zM511 1516z" />
<glyph unicode="T" horiz-adv-x="982" d="M0 1412zM74 1239v158h847v-158h-327v-1239h-193v1239h-327zM468 0zM498 1516z" />
<glyph unicode="U" horiz-adv-x="1057" d="M0 1412zM139 347v107v943h193v-926v-108q0 -112 53 -166t143 -54q96 0 151 59q55 60 55 169v100v926h193v-943v-88q0 -206 -110 -294q-109 -87 -284 -87q-167 0 -281 83q-113 83 -113 279zM533 0zM542 1516z" />
<glyph unicode="V" d="M59 1397h202l225 -1190l233 1190h187l-312 -1397h-238z" />
<glyph unicode="W" horiz-adv-x="1397" d="M74 1397h187l165 -1124l168 1124h232l167 -1124l166 1124h187l-238 -1397h-220l-177 1141l-179 -1141h-220z" />
<glyph unicode="X" horiz-adv-x="1057" d="M69 0l346 731l-307 666h211l210 -502l224 502h193l-308 -666l332 -731h-208l-234 557l-257 -557h-202z" />
<glyph unicode="Y" d="M0 1412zM74 1397h220l197 -606l222 606h193l-327 -813v-584h-193v584zM510 1516z" />
<glyph unicode="Z" d="M0 1412zM93 0v186l565 1048h-541v163h734v-196l-565 -1038h565v-163h-758zM501 1516z" />
<glyph unicode="[" horiz-adv-x="453" d="M107 -191h301v94h-149v1400h149v94h-301v-1588z" />
<glyph unicode="\" horiz-adv-x="453" d="M74 1397h124l203 -1545h-124z" />
<glyph unicode="]" horiz-adv-x="453" d="M55 -97h149v1400h-149v94h301v-1588h-301v94z" />
<glyph unicode="^" horiz-adv-x="1020" d="M115 992v93q262 179 357 446h105q106 -262 357 -446v-93q-223 73 -410 248q-178 -169 -409 -248z" />
<glyph unicode="_" horiz-adv-x="1020" d="M0 -400h1020v-105h-1020v105z" />
<glyph unicode="`" d="M253 1412h218l109 -312h-149zM488 1100z" />
<glyph unicode="a" horiz-adv-x="831" d="M99 260q0 207 101 274q102 68 349 68h11v105q0 63 -27 107q-26 45 -99 45q-72 0 -100 -39q-28 -38 -34 -121h-181q0 163 90 230q91 67 221 67q167 0 239 -73t72 -222v-40v-661h-181v104q-48 -71 -104 -95t-121 -24q-113 0 -175 68q-61 69 -61 207zM280 264 q0 -142 115 -142q73 0 119 53q46 54 46 212v78h-28q-122 0 -187 -47t-65 -154zM430 1100zM583 0z" />
<glyph unicode="b" horiz-adv-x="831" d="M96 0v1412h181v-520q67 104 207 104q114 0 184 -69t70 -251v-365q0 -175 -65 -251q-64 -75 -194 -75q-62 0 -107 19q-44 20 -95 85v-89h-181zM277 356q0 -234 149 -234q60 0 95 42q36 43 36 191v307q0 197 -138 197q-68 0 -105 -51q-37 -50 -37 -174v-278z" />
<glyph unicode="c" horiz-adv-x="793" d="M99 333v334q0 191 79 260t229 69q132 0 210 -62q79 -61 79 -219v-46h-181v43q0 82 -28 114q-27 33 -76 33h-4q-62 0 -95 -34q-32 -34 -32 -122v-356q0 -103 4 -126q20 -99 119 -99q64 0 93 38q30 38 30 140v12h181q0 -12 -3 -81q-2 -69 -32 -124q-66 -122 -260 -122 q-233 0 -288 153q-25 68 -25 195zM411 1100zM414 0z" />
<glyph unicode="d" horiz-adv-x="831" d="M96 317v336q0 343 259 343q56 0 104 -19q48 -18 98 -70v505h181v-1412h-181v89q-56 -61 -105 -83q-49 -21 -109 -21q-118 0 -183 82q-64 82 -64 250zM277 326q0 -131 36 -168q37 -36 95 -36q72 0 110 51q39 52 39 211v280q0 195 -136 195q-75 0 -110 -53 q-34 -52 -34 -200v-280z" />
<glyph unicode="e" horiz-adv-x="793" d="M88 320v13v310q0 202 81 277q81 76 237 76q309 0 309 -292v-270h-446v-135q0 -113 36 -145q37 -32 92 -32q69 0 103 35t34 130v10h181v-41q0 -137 -84 -204t-234 -67q-156 0 -233 74q-76 75 -76 261zM269 571h265v101q0 110 -34 148q-34 39 -99 39q-62 0 -97 -42 q-35 -41 -35 -145v-101zM406 0zM406 1100z" />
<glyph unicode="f" horiz-adv-x="604" d="M74 844v137h134v214q0 115 53 171q54 57 159 57q66 0 132 -10v-129q-29 2 -53 2q-51 0 -81 -26q-29 -25 -29 -88v-191h149v-137h-149v-844h-181v844h-134z" />
<glyph unicode="g" horiz-adv-x="831" d="M96 380v344q0 139 68 205q68 67 176 67q63 0 114 -23t88 -73v81h181v-893v-170q0 -298 -315 -298q-137 0 -210 69q-72 69 -72 218v25h156v-41q0 -63 30 -99q31 -35 92 -35q71 0 104 32q34 32 34 121v198q-45 -59 -93 -81q-47 -22 -107 -22q-115 0 -181 77q-65 78 -65 298 zM277 323q0 -114 34 -148q35 -33 87 -33q57 0 100 42q44 43 44 202v273q0 200 -139 200q-62 0 -94 -44q-32 -43 -32 -143v-286v-63zM410 1100z" />
<glyph unicode="h" horiz-adv-x="831" d="M113 0v1412h181v-520q54 56 105 80q52 24 116 24q106 0 173 -62q67 -61 67 -212v-64v-658h-181v617v47q0 109 -30 152q-29 43 -106 43q-70 0 -107 -50t-37 -185v-624h-181z" />
<glyph unicode="i" horiz-adv-x="378" d="M96 1234v184h193v-184h-193zM102 0v981h181v-981h-181zM163 0z" />
<glyph unicode="j" horiz-adv-x="378" d="M-8 -243h34h9q52 0 61 28q9 29 9 86v20v1090h181v-1079v-88q0 -109 -49 -152q-48 -42 -132 -42q-26 0 -50 3t-63 10v124zM99 1234v184h193v-184h-193z" />
<glyph unicode="k" horiz-adv-x="831" d="M122 0v1412h181v-1412h-181zM303 544l251 437h195l-251 -437l274 -544h-195zM417 0z" />
<glyph unicode="l" horiz-adv-x="378" d="M105 0v1412h181v-1412h-181zM196 0zM228 1516z" />
<glyph unicode="m" horiz-adv-x="1246" d="M102 0v981h181v-89q61 66 110 85t107 19q70 0 129 -28q60 -28 92 -91q51 63 104 91q54 28 129 28q123 0 187 -62t64 -197v-126v-611h-181v601v85q0 99 -35 136q-34 37 -97 37q-76 0 -112 -39t-36 -144v-75v-601h-181v601v71q0 112 -35 149q-35 38 -100 38q-71 0 -108 -44 t-37 -144v-70v-601h-181z" />
<glyph unicode="n" horiz-adv-x="831" d="M105 0v981h181v-89q72 104 225 104q106 0 171 -59t65 -205v-67v-665h-181v614v50q0 111 -32 153t-98 42q-85 0 -118 -56q-32 -56 -32 -199v-604h-181zM426 1100zM429 0z" />
<glyph unicode="o" horiz-adv-x="831" d="M93 321v39v265q0 212 87 291q88 80 234 80q216 0 283 -152q38 -87 38 -229v-255q0 -132 -23 -200q-59 -175 -293 -175q-169 0 -248 80q-78 81 -78 256zM274 332q0 -109 34 -160q34 -50 108 -50q61 0 99 43q39 44 39 175v24v274q0 134 -40 177q-40 44 -100 44 q-65 0 -103 -47q-37 -46 -37 -164v-284v-32zM419 1100z" />
<glyph unicode="p" horiz-adv-x="831" d="M105 -356v1337h181v-104l6 7q51 65 105 88q55 24 112 24q106 0 172 -73q66 -72 66 -243v-345q0 -204 -73 -277q-72 -73 -179 -73q-61 0 -113 23q-51 23 -96 81v-445h-181zM286 331q0 -209 144 -209q66 0 101 48q35 49 35 182v32v291q0 184 -120 184h-13q-83 0 -115 -61 t-32 -189v-278z" />
<glyph unicode="q" horiz-adv-x="831" d="M99 309v367q0 320 247 320h6q64 0 113 -24t95 -80v89h181v-1337h-181v430l-4 -4q-98 -85 -205 -85q-112 0 -182 69q-70 70 -70 255zM280 306q0 -97 33 -141q33 -43 99 -43q74 0 111 49q37 50 37 173v323q0 192 -144 192q-57 0 -97 -37q-39 -37 -39 -147v-9v-360z" />
<glyph unicode="r" horiz-adv-x="566" d="M108 0v981h181v-126q34 70 91 103t132 38v-180q-135 -4 -179 -71q-44 -66 -44 -206v-539h-181zM193 0zM310 1100z" />
<glyph unicode="s" horiz-adv-x="755" d="M79 268v29h181v-33q0 -142 123 -142q53 0 87 29q35 29 35 90q0 63 -44 104q-43 41 -124 97q-171 117 -202 178t-31 131q0 121 78 183t207 62q126 0 203 -53t77 -203v-41h-181v45q0 60 -27 87q-26 28 -76 28q-47 0 -74 -29q-26 -28 -26 -73q0 -59 50 -103t150 -115 q143 -100 172 -157q29 -56 29 -126q0 -125 -83 -198t-221 -73q-139 0 -221 63t-82 220zM379 0zM390 1100z" />
<glyph unicode="t" horiz-adv-x="604" d="M68 844v137h130v172l181 81v-253h149v-137h-149v-575v-45q0 -54 22 -77t77 -25l48 -2v-122q-65 -13 -131 -13q-100 0 -149 40q-48 41 -48 153v62v604h-130zM303 0z" />
<glyph unicode="u" horiz-adv-x="831" d="M0 996zM102 243v73v665h181v-658v-51q0 -150 124 -150q156 0 156 211v648h181v-981h-181v89q-87 -104 -216 -104q-99 0 -172 56q-73 57 -73 202zM428 1100zM586 0z" />
<glyph unicode="v" horiz-adv-x="793" d="M59 981h187l155 -816l155 816h187l-223 -981h-238z" />
<glyph unicode="w" horiz-adv-x="1322" d="M65 981h184l139 -832l152 832h255l152 -835l157 835h167l-208 -981h-246l-155 832l-158 -832h-246z" />
<glyph unicode="x" horiz-adv-x="793" d="M59 0l252 494l-221 487h193l130 -318l124 318h176l-215 -487l221 -494h-190l-130 345l-162 -345h-178z" />
<glyph unicode="y" horiz-adv-x="831" d="M0 996zM68 981h184l172 -721l181 721h176l-379 -1337h-170l102 334zM438 1100z" />
<glyph unicode="z" horiz-adv-x="680" d="M0 996zM74 0v153l351 691h-328v137h512v-138l-357 -706h363v-137h-541zM371 1100z" />
<glyph unicode="{" horiz-adv-x="906" d="M197 468v156q77 26 114 58q74 64 74 298v170v70q0 187 82 263q83 76 234 76h62v-156h-30q-95 0 -128 -33q-32 -33 -32 -116v-98v-178q0 -159 -30 -255q-29 -95 -124 -177q96 -85 125 -186q29 -100 29 -265v-192q0 -144 34 -178q35 -33 136 -33h20v-156h-57 q-159 0 -240 68t-81 275v30v185q0 164 -15 218t-53 91q-38 34 -120 65z" />
<glyph unicode="|" horiz-adv-x="1020" d="M461 -505v2036h105v-2036h-105z" />
<glyph unicode="}" horiz-adv-x="906" d="M145 -308h28q92 4 127 36t35 141v69v178q0 161 33 260q34 99 121 170q-96 81 -125 184q-29 104 -29 269v193q0 131 -30 171t-133 40h-27v156h47q199 0 265 -82q66 -81 66 -244v-48v-186q0 -248 68 -310q37 -35 120 -65v-156q-78 -26 -114 -58q-74 -64 -74 -297v-169v-40 q0 -215 -80 -292q-80 -76 -257 -76h-41v156z" />
<glyph unicode="~" horiz-adv-x="2039" d="M415 464q52 89 149 162q97 74 196 74q29 0 80 -7t258 -68q77 -23 164 -41q88 -18 131 -18q62 0 120 31q59 32 127 103l38 -21q-58 -121 -144 -192q-85 -70 -183 -70q-53 0 -152 23q-99 24 -286 75q-126 36 -198 36t-136 -29t-132 -90z" />
<glyph unicode="&#xa1;" horiz-adv-x="604" d="M205 -422l36 1036h137l36 -1036h-209zM205 761v214h209v-214h-209z" />
<glyph unicode="&#xa2;" d="M190 535q0 384 10 467q18 161 205 198v238h167v-238q154 -18 192 -138q18 -53 18 -105t2 -69h-181q0 23 -1 57q0 34 -8 58q-13 39 -37 53q-24 15 -63 15q-54 0 -89 -33q-34 -32 -34 -94v-435q0 -57 8 -100q17 -76 111 -76q113 0 113 129v54h181q-4 -110 -8 -141 q-19 -136 -204 -171v-253h-167v253q-170 14 -205 179q-10 48 -10 152z" />
<glyph unicode="&#xa3;" d="M181 698v156h82v277v30q0 125 61 188q62 63 198 63q119 0 191 -53q73 -52 73 -200v-119h-181v108q0 60 -19 84t-59 24q-45 0 -64 -31q-19 -30 -19 -94v-32v-245h170v-156h-170v-542h336v-156h-579v156h62v542h-82z" />
<glyph unicode="&#xa4;" d="M-13 323l137 138q-47 69 -68 134q-20 66 -20 149q0 97 29 166q30 70 59 108l-137 138l80 80l138 -138q75 50 134 69q60 20 142 20q96 0 166 -28q71 -27 115 -61l138 138l80 -80l-140 -138q28 -27 59 -108q32 -81 32 -173q0 -94 -28 -163q-27 -69 -61 -113l138 -138 l-80 -80l-138 137q-65 -49 -137 -69q-72 -19 -139 -19q-90 0 -164 26q-74 27 -117 62l-138 -137zM158 739q0 -138 96 -232q97 -93 230 -93q134 0 229 95q96 96 96 231q0 123 -92 224q-91 101 -234 101q-134 0 -230 -96q-95 -95 -95 -230z" />
<glyph unicode="&#xa5;" d="M90 1397h184l200 -606l210 606h178l-297 -808v-133h223v-104h-223v-119h223v-104h-223v-129h-193v129h-223v104h223v119h-223v104h223v133z" />
<glyph unicode="&#xa6;" horiz-adv-x="1020" d="M461 -452v922h105v-922h-105zM461 574v922h105v-922h-105z" />
<glyph unicode="&#xa7;" d="M171 721q0 171 201 221q-149 88 -149 227q0 98 68 172t242 74q74 0 171 -22v-127q-83 15 -147 15q-82 0 -122 -30q-39 -29 -39 -83q0 -96 171 -176q146 -70 186 -123q41 -53 41 -122q0 -80 -47 -138t-138 -90q103 -64 135 -118q33 -54 33 -130q0 -127 -89 -204 q-89 -76 -268 -76q-79 0 -194 21v128q111 -15 180 -15q77 0 132 36q56 36 56 108q0 61 -53 105q-52 45 -177 106q-121 59 -157 117t-36 124zM333 733q0 -59 35 -94q36 -35 112 -69q150 53 150 153q0 91 -135 158q-162 -42 -162 -148z" />
<glyph unicode="&#xa8;" d="M223 1174v182h194v-182h-194zM477 1100zM536 1174v182h194v-182h-194z" />
<glyph unicode="&#xa9;" horiz-adv-x="1020" d="M62 1041q0 187 136 331t338 144q192 0 333 -139t141 -337q0 -188 -137 -332q-136 -143 -337 -143q-193 0 -334 138q-140 139 -140 338zM133 1040q0 -157 114 -281q114 -123 289 -123q162 0 282 117q121 117 121 288q0 156 -115 280q-114 124 -288 124q-166 0 -285 -119 q-118 -119 -118 -286zM285 1058q0 111 77 192q78 82 190 82q50 0 99 -19q50 -18 95 -55l-63 -63q-20 23 -55 43q-35 21 -80 21q-79 0 -135 -61q-55 -60 -55 -143q0 -81 53 -142q54 -61 136 -61q39 0 77 22q38 23 64 57l58 -63q-27 -34 -84 -62q-57 -27 -112 -27 q-107 0 -186 80q-79 81 -79 199z" />
<glyph unicode="&#xaa;" horiz-adv-x="566" d="M57 960q0 128 53 173q53 46 259 46v37q0 59 -16 77q-15 19 -46 19q-46 0 -62 -24q-15 -24 -15 -69h-156q0 108 57 150q57 43 172 43q120 0 171 -47q51 -46 51 -140v-35v-402h-156v73q-57 -83 -152 -83q-77 0 -119 45q-41 45 -41 137zM213 988q0 -60 14 -85q15 -25 51 -25 q39 0 65 30q26 31 26 120v64h-10q-95 0 -121 -24q-25 -23 -25 -80z" />
<glyph unicode="&#xab;" horiz-adv-x="906" d="M115 495l222 -357h150l-199 357l199 357h-150zM442 495l222 -357h150l-199 357l199 357h-150z" />
<glyph unicode="&#xac;" horiz-adv-x="1360" d="M297 677v124h788v-466h-124v342h-664z" />
<glyph unicode="&#xad;" horiz-adv-x="453" d="M89 429v157h268v-157h-268z" />
<glyph unicode="&#xae;" horiz-adv-x="1020" d="M62 1041q0 187 136 331t338 144q192 0 333 -139t141 -337q0 -188 -137 -332q-136 -143 -337 -143q-193 0 -334 138q-140 139 -140 338zM133 1040q0 -157 114 -281q114 -123 289 -123q162 0 282 117q121 117 121 288q0 156 -115 280q-114 124 -288 124q-166 0 -285 -119 q-118 -119 -118 -286zM387 803v505h161q152 0 152 -147q0 -91 -84 -131l90 -227h-97l-79 211h-70v-211h-73zM460 1087h92q75 0 75 73q0 75 -75 75h-92v-148z" />
<glyph unicode="&#xaf;" horiz-adv-x="1020" d="M0 1531v105h1020v-105h-1020z" />
<glyph unicode="&#xb0;" d="M178 1096q0 144 76 230q77 86 218 86q149 0 229 -83t80 -228q0 -153 -79 -237q-78 -84 -215 -84q-149 0 -229 81t-80 235zM320 1096q0 -204 160 -204q75 0 117 51q42 52 42 153q0 204 -160 204q-76 0 -118 -53q-41 -52 -41 -151z" />
<glyph unicode="&#xb1;" horiz-adv-x="1360" d="M297 0v124h808v-124h-808zM297 525v124h342v312h124v-312h342v-124h-342v-312h-124v312h-342z" />
<glyph unicode="&#xb2;" horiz-adv-x="566" d="M74 669v123q212 270 250 341t38 120q0 33 -15 54q-15 22 -48 22q-31 0 -50 -20q-19 -19 -19 -65v-32h-143v58q0 165 196 165q117 0 169 -45q53 -45 53 -132q0 -110 -73 -221q-73 -110 -220 -262h300v-106h-438z" />
<glyph unicode="&#xb3;" horiz-adv-x="566" d="M71 815v54h2h141v-24q0 -42 19 -60t51 -18q37 0 58 20q21 21 21 94q0 80 -25 102q-24 22 -72 22h-32v106q94 1 109 32q16 31 16 85q0 26 -4 48q-4 29 -20 41q-15 12 -46 12q-60 0 -60 -87h-145v49q0 144 194 144q112 0 168 -43t56 -150q0 -99 -26 -136q-26 -36 -81 -48 q62 -10 86 -56q25 -45 25 -115q0 -134 -57 -180q-56 -46 -166 -46q-115 0 -164 41q-48 41 -48 113z" />
<glyph unicode="&#xb4;" d="M357 1100l109 312h218l-178 -312h-149zM458 1100z" />
<glyph unicode="&#xb5;" horiz-adv-x="1133" d="M-125 -342q126 284 196 519q71 235 102 338l133 466h193l-166 -579q-24 -90 -24 -144q0 -60 45 -102t115 -42q111 0 193 116t158 385l104 366h188l-147 -510q-73 -253 -73 -471h-188q0 104 9 169q-64 -111 -129 -153t-135 -42q-87 0 -133 45q-46 46 -59 114l-171 -475 h-211z" />
<glyph unicode="&#xb6;" d="M74 1033q0 211 162 347q163 136 499 136h189v-78h-138v-1765h-79v1765h-98v-1765h-79v892q-253 43 -355 174q-101 131 -101 294z" />
<glyph unicode="&#xb8;" d="M282 -365l151 268h146l-91 -268h-206zM461 0z" />
<glyph unicode="&#xb9;" horiz-adv-x="566" d="M119 1174v137q93 45 141 116h136v-758h-143v606q-54 -62 -134 -101z" />
<glyph unicode="&#xba;" horiz-adv-x="566" d="M45 986v27v182q0 217 223 217q138 0 191 -57q54 -56 54 -155v-187q0 -235 -241 -235q-123 0 -175 57t-52 151zM201 989q0 -68 19 -90q19 -21 60 -21q77 0 77 115v17v194q0 108 -78 108q-37 0 -58 -26q-20 -25 -20 -89v-187v-21z" />
<glyph unicode="&#xbb;" horiz-adv-x="906" d="M104 138l199 357l-199 357h150l222 -357l-222 -357h-150zM431 138l199 357l-199 357h150l222 -357l-222 -357h-150z" />
<glyph unicode="&#xbc;" horiz-adv-x="1360" d="M206 1174v137q93 45 141 116h136v-758h-143v606q-54 -62 -134 -101zM296 -87l553 1499h116l-553 -1499h-116zM700 166v129l198 459h203v-482h100v-106h-100v-170h-143v170h-258zM812 272h146v360z" />
<glyph unicode="&#xbd;" horiz-adv-x="1360" d="M165 1174v137q93 45 141 116h136v-758h-143v606q-54 -62 -134 -101zM266 -87l553 1499h116l-553 -1499h-116zM752 -4v123q212 270 250 341t38 120q0 33 -15 54q-15 22 -48 22q-31 0 -50 -20q-19 -19 -19 -65v-32h-143v58q0 165 196 165q117 0 169 -45q53 -45 53 -132 q0 -110 -73 -221q-73 -110 -220 -262h300v-106h-438z" />
<glyph unicode="&#xbe;" horiz-adv-x="1360" d="M163 815v54h2h141v-24q0 -42 19 -60t51 -18q37 0 58 20q21 21 21 94q0 80 -25 102q-24 22 -72 22h-32v106q94 1 109 32q16 31 16 85q0 26 -4 48q-4 29 -20 41q-15 12 -46 12q-60 0 -60 -87h-145v49q0 144 194 144q112 0 168 -43t56 -150q0 -99 -26 -136q-26 -36 -81 -48 q62 -10 86 -56q25 -45 25 -115q0 -134 -57 -180q-56 -46 -166 -46q-115 0 -164 41q-48 41 -48 113zM364 -87l553 1499h116l-553 -1499h-116zM755 166v129l198 459h203v-482h100v-106h-100v-170h-143v170h-258zM867 272h146v360z" />
<glyph unicode="&#xbf;" horiz-adv-x="868" d="M132 -106q0 133 56 211q55 78 155 190q52 61 52 121v187h157v-222q0 -67 -32 -117q-33 -51 -120 -153q-58 -64 -65 -110q-8 -47 -8 -118q0 -111 31 -145q30 -34 97 -34q55 0 89 37t34 132v85h195v-107q0 -134 -76 -215q-76 -82 -237 -82t-244 67q-84 67 -84 244v29z M369 752v214h209v-214h-209z" />
<glyph unicode="&#xc0;" horiz-adv-x="1057" d="M0 1412zM81 0l327 1397h253l327 -1397h-202l-69 320h-379l-70 -320h-187zM303 1828h218l109 -312h-149zM372 478h308l-149 744zM538 1516zM538 1516zM783 0z" />
<glyph unicode="&#xc1;" horiz-adv-x="1057" d="M0 1412zM81 0l327 1397h253l327 -1397h-202l-69 320h-379l-70 -320h-187zM372 478h308l-149 744zM437 1516l109 312h218l-178 -312h-149zM538 1516zM538 1516zM783 0z" />
<glyph unicode="&#xc2;" horiz-adv-x="1057" d="M0 1412zM81 0l327 1397h253l327 -1397h-202l-69 320h-379l-70 -320h-187zM300 1516l104 282h267l104 -282h-133l-105 200l-104 -200h-133zM372 478h308l-149 744zM538 1516zM538 1516zM783 0z" />
<glyph unicode="&#xc3;" horiz-adv-x="1057" d="M0 1412zM81 0l327 1397h253l327 -1397h-202l-69 320h-379l-70 -320h-187zM297 1561q0 155 28 194q28 40 75 40q69 0 137 -47q69 -47 99 -47q33 0 35 67l1 16h106q0 -142 -30 -188q-29 -46 -72 -46q-60 0 -133 51q-73 52 -99 52q-38 0 -38 -68v-24h-109zM372 478h308 l-149 744zM538 1516zM538 1516zM783 0z" />
<glyph unicode="&#xc4;" horiz-adv-x="1057" d="M0 1412zM81 0l327 1397h253l327 -1397h-202l-69 320h-379l-70 -320h-187zM284 1590v182h194v-182h-194zM372 478h308l-149 744zM538 1516zM538 1516zM597 1590v182h194v-182h-194zM783 0z" />
<glyph unicode="&#xc5;" horiz-adv-x="1057" d="M0 1412zM81 0l327 1397h253l327 -1397h-202l-69 320h-379l-70 -320h-187zM355 1699q0 72 52 127q53 55 131 55q73 0 127 -54q55 -53 55 -129q0 -72 -51 -127t-132 -55q-75 0 -129 52q-53 53 -53 131zM372 478h308l-149 744zM452 1698q0 -38 23 -62q23 -23 63 -23 q33 0 59 23t26 63q0 33 -25 59t-61 26q-31 0 -58 -23t-27 -63zM538 1516zM538 1516zM783 0z" />
<glyph unicode="&#xc6;" horiz-adv-x="1435" d="M72 0l520 1397h725v-158h-451v-11l59 -437h392v-158h-380l59 -475h339v-158h-505l-39 320h-406l-111 -320h-202zM443 478h329l-86 684z" />
<glyph unicode="&#xc7;" horiz-adv-x="1020" d="M142 392v589q0 243 103 337q104 94 291 94q184 0 274 -84q90 -83 90 -252v-95h-193v74q0 98 -37 148q-37 51 -126 51q-93 0 -151 -49q-58 -48 -58 -173v-64v-606q0 -123 55 -171t134 -48q97 0 140 68t43 211v39h193v-67q0 -227 -95 -318t-275 -91q-193 0 -291 88 q-97 88 -97 319zM324 -365l151 268h146l-91 -268h-206zM503 0zM503 0zM536 1516z" />
<glyph unicode="&#xc8;" horiz-adv-x="868" d="M0 1412zM136 0v1397h639v-158h-446v-448h419v-158h-419v-475h458v-158h-651zM240 1828h218l109 -312h-149zM475 1516zM475 1516zM588 0z" />
<glyph unicode="&#xc9;" horiz-adv-x="868" d="M0 1412zM136 0v1397h639v-158h-446v-448h419v-158h-419v-475h458v-158h-651zM374 1516l109 312h218l-178 -312h-149zM475 1516zM475 1516zM588 0z" />
<glyph unicode="&#xca;" horiz-adv-x="868" d="M0 1412zM136 0v1397h639v-158h-446v-448h419v-158h-419v-475h458v-158h-651zM237 1516l104 282h267l104 -282h-133l-105 200l-104 -200h-133zM475 1516zM475 1516zM588 0z" />
<glyph unicode="&#xcb;" horiz-adv-x="868" d="M0 1412zM136 0v1397h639v-158h-446v-448h419v-158h-419v-475h458v-158h-651zM221 1590v182h194v-182h-194zM475 1516zM475 1516zM534 1590v182h194v-182h-194zM588 0z" />
<glyph unicode="&#xcc;" horiz-adv-x="453" d="M0 1412zM1 1828h218l109 -312h-149zM139 0v1397h193v-1397h-193zM214 0zM236 1516zM236 1516z" />
<glyph unicode="&#xcd;" horiz-adv-x="453" d="M0 1412zM135 1516l109 312h218l-178 -312h-149zM139 0v1397h193v-1397h-193zM214 0zM236 1516zM236 1516z" />
<glyph unicode="&#xce;" horiz-adv-x="453" d="M-2 1516l104 282h267l104 -282h-133l-105 200l-104 -200h-133zM0 1412zM139 0v1397h193v-1397h-193zM214 0zM236 1516zM236 1516z" />
<glyph unicode="&#xcf;" horiz-adv-x="453" d="M-18 1590v182h194v-182h-194zM0 1412zM139 0v1397h193v-1397h-193zM214 0zM236 1516zM236 1516zM295 1590v182h194v-182h-194z" />
<glyph unicode="&#xd0;" horiz-adv-x="1057" d="M28 633v151h111v613h341h27q219 0 326 -99q108 -99 108 -319v-537q0 -273 -99 -358q-99 -84 -249 -84h-84h-370v633h-111zM332 158h177q160 0 199 78q40 78 40 234v492q0 156 -52 216q-52 61 -187 61h-177v-455h178v-151h-178v-475z" />
<glyph unicode="&#xd1;" horiz-adv-x="1095" d="M0 1412zM133 0v1397h304l365 -1173v1173h181v-1397h-295l-374 1201v-1201h-181zM347 1561q0 155 28 194q28 40 75 40q69 0 137 -47q69 -47 99 -47q33 0 35 67l1 16h106q0 -142 -30 -188q-29 -46 -72 -46q-60 0 -133 51q-73 52 -99 52q-38 0 -38 -68v-24h-109zM565 0z M588 1516zM588 1516z" />
<glyph unicode="&#xd2;" horiz-adv-x="1057" d="M136 419v62v534q0 229 116 313q117 84 285 84q183 0 292 -93q109 -92 109 -297v-78v-517q0 -281 -109 -362q-109 -80 -286 -80q-206 0 -307 85q-100 85 -100 349zM302 1828h218l109 -312h-149zM329 436q0 -189 60 -241q61 -52 148 -52q85 0 146 53q62 53 62 235v515v42 q0 160 -60 213q-59 53 -148 53q-81 0 -145 -49q-63 -48 -63 -226v-497v-46zM537 1516zM537 1516z" />
<glyph unicode="&#xd3;" horiz-adv-x="1057" d="M136 419v62v534q0 229 116 313q117 84 285 84q183 0 292 -93q109 -92 109 -297v-78v-517q0 -281 -109 -362q-109 -80 -286 -80q-206 0 -307 85q-100 85 -100 349zM329 436q0 -189 60 -241q61 -52 148 -52q85 0 146 53q62 53 62 235v515v42q0 160 -60 213q-59 53 -148 53 q-81 0 -145 -49q-63 -48 -63 -226v-497v-46zM436 1516l109 312h218l-178 -312h-149zM537 1516zM537 1516z" />
<glyph unicode="&#xd4;" horiz-adv-x="1057" d="M136 419v62v534q0 229 116 313q117 84 285 84q183 0 292 -93q109 -92 109 -297v-78v-517q0 -281 -109 -362q-109 -80 -286 -80q-206 0 -307 85q-100 85 -100 349zM299 1516l104 282h267l104 -282h-133l-105 200l-104 -200h-133zM329 436q0 -189 60 -241q61 -52 148 -52 q85 0 146 53q62 53 62 235v515v42q0 160 -60 213q-59 53 -148 53q-81 0 -145 -49q-63 -48 -63 -226v-497v-46zM537 1516zM537 1516z" />
<glyph unicode="&#xd5;" horiz-adv-x="1057" d="M136 419v62v534q0 229 116 313q117 84 285 84q183 0 292 -93q109 -92 109 -297v-78v-517q0 -281 -109 -362q-109 -80 -286 -80q-206 0 -307 85q-100 85 -100 349zM296 1561q0 155 28 194q28 40 75 40q69 0 137 -47q69 -47 99 -47q33 0 35 67l1 16h106q0 -142 -30 -188 q-29 -46 -72 -46q-60 0 -133 51q-73 52 -99 52q-38 0 -38 -68v-24h-109zM329 436q0 -189 60 -241q61 -52 148 -52q85 0 146 53q62 53 62 235v515v42q0 160 -60 213q-59 53 -148 53q-81 0 -145 -49q-63 -48 -63 -226v-497v-46zM537 1516zM537 1516z" />
<glyph unicode="&#xd6;" horiz-adv-x="1057" d="M136 419v62v534q0 229 116 313q117 84 285 84q183 0 292 -93q109 -92 109 -297v-78v-517q0 -281 -109 -362q-109 -80 -286 -80q-206 0 -307 85q-100 85 -100 349zM283 1590v182h194v-182h-194zM329 436q0 -189 60 -241q61 -52 148 -52q85 0 146 53q62 53 62 235v515v42 q0 160 -60 213q-59 53 -148 53q-81 0 -145 -49q-63 -48 -63 -226v-497v-46zM537 1516zM537 1516zM596 1590v182h194v-182h-194z" />
<glyph unicode="&#xd7;" horiz-adv-x="1360" d="M312 295l280 280l-280 281l91 91l280 -280l281 280l91 -91l-280 -281l280 -280l-91 -91l-281 280l-280 -280z" />
<glyph unicode="&#xd8;" horiz-adv-x="1057" d="M145 437v605q0 213 112 291q112 79 274 79q104 0 189 -31l48 137l87 -27l-52 -152q72 -54 93 -135q22 -81 22 -235v-577q0 -227 -111 -317t-275 -90q-100 0 -182 31l-55 -154l-87 27l60 173q-66 42 -95 125q-28 84 -28 250zM338 437q0 -103 10 -140l315 917 q-46 40 -135 40q-84 0 -137 -45t-53 -188v-584zM407 186q56 -43 126 -43q80 0 136 56t56 240v528q0 106 -6 130z" />
<glyph unicode="&#xd9;" horiz-adv-x="1057" d="M0 1412zM139 347v107v943h193v-926v-108q0 -112 53 -166t143 -54q96 0 151 59q55 60 55 169v100v926h193v-943v-88q0 -206 -110 -294q-109 -87 -284 -87q-167 0 -281 83q-113 83 -113 279zM307 1828h218l109 -312h-149zM533 0zM542 1516zM542 1516z" />
<glyph unicode="&#xda;" horiz-adv-x="1057" d="M0 1412zM139 347v107v943h193v-926v-108q0 -112 53 -166t143 -54q96 0 151 59q55 60 55 169v100v926h193v-943v-88q0 -206 -110 -294q-109 -87 -284 -87q-167 0 -281 83q-113 83 -113 279zM441 1516l109 312h218l-178 -312h-149zM533 0zM542 1516zM542 1516z" />
<glyph unicode="&#xdb;" horiz-adv-x="1057" d="M0 1412zM139 347v107v943h193v-926v-108q0 -112 53 -166t143 -54q96 0 151 59q55 60 55 169v100v926h193v-943v-88q0 -206 -110 -294q-109 -87 -284 -87q-167 0 -281 83q-113 83 -113 279zM304 1516l104 282h267l104 -282h-133l-105 200l-104 -200h-133zM533 0zM542 1516 zM542 1516z" />
<glyph unicode="&#xdc;" horiz-adv-x="1057" d="M0 1412zM139 347v107v943h193v-926v-108q0 -112 53 -166t143 -54q96 0 151 59q55 60 55 169v100v926h193v-943v-88q0 -206 -110 -294q-109 -87 -284 -87q-167 0 -281 83q-113 83 -113 279zM288 1590v182h194v-182h-194zM533 0zM542 1516zM542 1516zM601 1590v182h194 v-182h-194z" />
<glyph unicode="&#xdd;" d="M0 1412zM74 1397h220l197 -606l222 606h193l-327 -813v-584h-193v584zM409 1516l109 312h218l-178 -312h-149zM510 1516zM510 1516z" />
<glyph unicode="&#xde;" d="M136 0v1397h193v-320h110h82q199 0 278 -99q80 -99 80 -272q0 -211 -92 -310q-91 -98 -273 -98h-185v-298h-193zM329 456h153q104 0 154 45q50 46 50 194q0 119 -51 171q-51 53 -179 53h-127v-463z" />
<glyph unicode="&#xdf;" horiz-adv-x="906" d="M110 0v1100q0 323 334 323q152 0 230 -68q78 -67 78 -202q0 -124 -60 -190q-37 -40 -84 -85q-47 -44 -47 -81q0 -36 44 -85q44 -48 160 -162q106 -103 106 -261q0 -169 -80 -237q-80 -67 -264 -67q-50 0 -134 6v148q84 -17 142 -17q85 0 120 37t35 109q0 88 -48 148 q-47 60 -150 162q-68 68 -90 110t-22 93q0 81 51 135q107 110 123 140q17 31 17 86q0 144 -136 144q-69 0 -107 -46q-37 -45 -37 -147v-38v-1055h-181z" />
<glyph unicode="&#xe0;" horiz-adv-x="831" d="M99 260q0 207 101 274q102 68 349 68h11v105q0 63 -27 107q-26 45 -99 45q-72 0 -100 -39q-28 -38 -34 -121h-181q0 163 90 230q91 67 221 67q167 0 239 -73t72 -222v-40v-661h-181v104q-48 -71 -104 -95t-121 -24q-113 0 -175 68q-61 69 -61 207zM195 1412h218l109 -312 h-149zM280 264q0 -142 115 -142q73 0 119 53q46 54 46 212v78h-28q-122 0 -187 -47t-65 -154zM430 1100zM430 1100zM583 0z" />
<glyph unicode="&#xe1;" horiz-adv-x="831" d="M99 260q0 207 101 274q102 68 349 68h11v105q0 63 -27 107q-26 45 -99 45q-72 0 -100 -39q-28 -38 -34 -121h-181q0 163 90 230q91 67 221 67q167 0 239 -73t72 -222v-40v-661h-181v104q-48 -71 -104 -95t-121 -24q-113 0 -175 68q-61 69 -61 207zM280 264 q0 -142 115 -142q73 0 119 53q46 54 46 212v78h-28q-122 0 -187 -47t-65 -154zM329 1100l109 312h218l-178 -312h-149zM430 1100zM430 1100zM583 0z" />
<glyph unicode="&#xe2;" horiz-adv-x="831" d="M99 260q0 207 101 274q102 68 349 68h11v105q0 63 -27 107q-26 45 -99 45q-72 0 -100 -39q-28 -38 -34 -121h-181q0 163 90 230q91 67 221 67q167 0 239 -73t72 -222v-40v-661h-181v104q-48 -71 -104 -95t-121 -24q-113 0 -175 68q-61 69 -61 207zM192 1100l104 282h267 l104 -282h-133l-105 200l-104 -200h-133zM280 264q0 -142 115 -142q73 0 119 53q46 54 46 212v78h-28q-122 0 -187 -47t-65 -154zM430 1100zM430 1100zM583 0z" />
<glyph unicode="&#xe3;" horiz-adv-x="831" d="M99 260q0 207 101 274q102 68 349 68h11v105q0 63 -27 107q-26 45 -99 45q-72 0 -100 -39q-28 -38 -34 -121h-181q0 163 90 230q91 67 221 67q167 0 239 -73t72 -222v-40v-661h-181v104q-48 -71 -104 -95t-121 -24q-113 0 -175 68q-61 69 -61 207zM189 1145q0 155 28 194 q28 40 75 40q69 0 137 -47q69 -47 99 -47q33 0 35 67l1 16h106q0 -142 -30 -188q-29 -46 -72 -46q-60 0 -133 51q-73 52 -99 52q-38 0 -38 -68v-24h-109zM280 264q0 -142 115 -142q73 0 119 53q46 54 46 212v78h-28q-122 0 -187 -47t-65 -154zM430 1100zM430 1100zM583 0z " />
<glyph unicode="&#xe4;" horiz-adv-x="831" d="M99 260q0 207 101 274q102 68 349 68h11v105q0 63 -27 107q-26 45 -99 45q-72 0 -100 -39q-28 -38 -34 -121h-181q0 163 90 230q91 67 221 67q167 0 239 -73t72 -222v-40v-661h-181v104q-48 -71 -104 -95t-121 -24q-113 0 -175 68q-61 69 -61 207zM176 1174v182h194v-182 h-194zM280 264q0 -142 115 -142q73 0 119 53q46 54 46 212v78h-28q-122 0 -187 -47t-65 -154zM430 1100zM430 1100zM489 1174v182h194v-182h-194zM583 0z" />
<glyph unicode="&#xe5;" horiz-adv-x="831" d="M99 260q0 207 101 274q102 68 349 68h11v105q0 63 -27 107q-26 45 -99 45q-72 0 -100 -39q-28 -38 -34 -121h-181q0 163 90 230q91 67 221 67q167 0 239 -73t72 -222v-40v-661h-181v104q-48 -71 -104 -95t-121 -24q-113 0 -175 68q-61 69 -61 207zM247 1283q0 72 52 127 q53 55 131 55q73 0 127 -54q55 -53 55 -129q0 -72 -51 -127t-132 -55q-75 0 -129 52q-53 53 -53 131zM280 264q0 -142 115 -142q73 0 119 53q46 54 46 212v78h-28q-122 0 -187 -47t-65 -154zM344 1282q0 -38 23 -62q23 -23 63 -23q33 0 59 23t26 63q0 33 -25 59t-61 26 q-31 0 -58 -23t-27 -63zM430 1100zM430 1100zM583 0z" />
<glyph unicode="&#xe6;" horiz-adv-x="1284" d="M105 279q0 193 80 258t324 65h42v106q0 151 -120 151q-57 0 -90 -36q-32 -36 -32 -109h-181q10 158 81 220q72 62 203 62q204 0 246 -150q53 150 230 150q152 0 221 -83t69 -231v-228h-446v-142q0 -102 41 -146q42 -44 97 -44q61 0 91 39t30 101v35h181v-39 q0 -127 -80 -200t-211 -73q-123 0 -183 58q-60 59 -69 120q-62 -178 -270 -178q-145 0 -200 73q-54 74 -54 221zM286 267q0 -145 111 -145q69 0 111 49q43 50 43 151v143q-187 -4 -226 -55t-39 -143zM732 591h265v115q0 75 -34 114q-33 39 -94 39q-60 0 -99 -40 q-38 -39 -38 -112v-116z" />
<glyph unicode="&#xe7;" horiz-adv-x="793" d="M99 333v334q0 191 79 260t229 69q132 0 210 -62q79 -61 79 -219v-46h-181v43q0 82 -28 114q-27 33 -76 33h-4q-62 0 -95 -34q-32 -34 -32 -122v-356q0 -103 4 -126q20 -99 119 -99q64 0 93 38q30 38 30 140v12h181q0 -12 -3 -81q-2 -69 -32 -124q-66 -122 -260 -122 q-233 0 -288 153q-25 68 -25 195zM235 -365l151 268h146l-91 -268h-206zM411 1100zM414 0zM414 0z" />
<glyph unicode="&#xe8;" horiz-adv-x="793" d="M88 320v13v310q0 202 81 277q81 76 237 76q309 0 309 -292v-270h-446v-135q0 -113 36 -145q37 -32 92 -32q69 0 103 35t34 130v10h181v-41q0 -137 -84 -204t-234 -67q-156 0 -233 74q-76 75 -76 261zM171 1412h218l109 -312h-149zM269 571h265v101q0 110 -34 148 q-34 39 -99 39q-62 0 -97 -42q-35 -41 -35 -145v-101zM406 0zM406 1100zM406 1100z" />
<glyph unicode="&#xe9;" horiz-adv-x="793" d="M88 320v13v310q0 202 81 277q81 76 237 76q309 0 309 -292v-270h-446v-135q0 -113 36 -145q37 -32 92 -32q69 0 103 35t34 130v10h181v-41q0 -137 -84 -204t-234 -67q-156 0 -233 74q-76 75 -76 261zM269 571h265v101q0 110 -34 148q-34 39 -99 39q-62 0 -97 -42 q-35 -41 -35 -145v-101zM305 1100l109 312h218l-178 -312h-149zM406 0zM406 1100zM406 1100z" />
<glyph unicode="&#xea;" horiz-adv-x="793" d="M88 320v13v310q0 202 81 277q81 76 237 76q309 0 309 -292v-270h-446v-135q0 -113 36 -145q37 -32 92 -32q69 0 103 35t34 130v10h181v-41q0 -137 -84 -204t-234 -67q-156 0 -233 74q-76 75 -76 261zM168 1100l104 282h267l104 -282h-133l-105 200l-104 -200h-133z M269 571h265v101q0 110 -34 148q-34 39 -99 39q-62 0 -97 -42q-35 -41 -35 -145v-101zM406 0zM406 1100zM406 1100z" />
<glyph unicode="&#xeb;" horiz-adv-x="793" d="M88 320v13v310q0 202 81 277q81 76 237 76q309 0 309 -292v-270h-446v-135q0 -113 36 -145q37 -32 92 -32q69 0 103 35t34 130v10h181v-41q0 -137 -84 -204t-234 -67q-156 0 -233 74q-76 75 -76 261zM152 1174v182h194v-182h-194zM269 571h265v101q0 110 -34 148 q-34 39 -99 39q-62 0 -97 -42q-35 -41 -35 -145v-101zM406 0zM406 1100zM406 1100zM465 1174v182h194v-182h-194z" />
<glyph unicode="&#xec;" horiz-adv-x="453" d="M-8 1412h218l109 -312h-149zM0 996zM136 0v981h181v-981h-181zM227 1100zM227 1100z" />
<glyph unicode="&#xed;" horiz-adv-x="453" d="M0 996zM126 1100l109 312h218l-178 -312h-149zM136 0v981h181v-981h-181zM227 1100zM227 1100z" />
<glyph unicode="&#xee;" horiz-adv-x="453" d="M-11 1100l104 282h267l104 -282h-133l-105 200l-104 -200h-133zM0 996zM136 0v981h181v-981h-181zM227 1100zM227 1100z" />
<glyph unicode="&#xef;" horiz-adv-x="453" d="M-27 1174v182h194v-182h-194zM0 996zM136 0v981h181v-981h-181zM227 1100zM227 1100zM286 1174v182h194v-182h-194z" />
<glyph unicode="&#xf0;" horiz-adv-x="831" d="M93 364v301q0 331 284 331q88 0 148 -43q-20 94 -87 218l-158 -86l-45 88l147 81q-58 74 -96 119l130 69q57 -50 103 -114l160 86l45 -88l-150 -82q72 -107 116 -264q45 -156 45 -308v-309q0 -209 -82 -294q-81 -84 -244 -84q-237 0 -294 176q-22 69 -22 203zM274 361 q0 -82 7 -126q17 -113 131 -113t132 111q10 58 10 128v303q0 88 -18 128q-29 67 -113 67q-87 0 -119 -49q-30 -47 -30 -138v-311z" />
<glyph unicode="&#xf1;" horiz-adv-x="831" d="M105 0v981h181v-89q72 104 225 104q106 0 171 -59t65 -205v-67v-665h-181v614v50q0 111 -32 153t-98 42q-85 0 -118 -56q-32 -56 -32 -199v-604h-181zM185 1145q0 155 28 194q28 40 75 40q69 0 137 -47q69 -47 99 -47q33 0 35 67l1 16h106q0 -142 -30 -188 q-29 -46 -72 -46q-60 0 -133 51q-73 52 -99 52q-38 0 -38 -68v-24h-109zM426 1100zM426 1100zM429 0z" />
<glyph unicode="&#xf2;" horiz-adv-x="831" d="M93 321v39v265q0 212 87 291q88 80 234 80q216 0 283 -152q38 -87 38 -229v-255q0 -132 -23 -200q-59 -175 -293 -175q-169 0 -248 80q-78 81 -78 256zM184 1412h218l109 -312h-149zM274 332q0 -109 34 -160q34 -50 108 -50q61 0 99 43q39 44 39 175v24v274 q0 134 -40 177q-40 44 -100 44q-65 0 -103 -47q-37 -46 -37 -164v-284v-32zM419 1100zM419 1100z" />
<glyph unicode="&#xf3;" horiz-adv-x="831" d="M93 321v39v265q0 212 87 291q88 80 234 80q216 0 283 -152q38 -87 38 -229v-255q0 -132 -23 -200q-59 -175 -293 -175q-169 0 -248 80q-78 81 -78 256zM274 332q0 -109 34 -160q34 -50 108 -50q61 0 99 43q39 44 39 175v24v274q0 134 -40 177q-40 44 -100 44 q-65 0 -103 -47q-37 -46 -37 -164v-284v-32zM318 1100l109 312h218l-178 -312h-149zM419 1100zM419 1100z" />
<glyph unicode="&#xf4;" horiz-adv-x="831" d="M93 321v39v265q0 212 87 291q88 80 234 80q216 0 283 -152q38 -87 38 -229v-255q0 -132 -23 -200q-59 -175 -293 -175q-169 0 -248 80q-78 81 -78 256zM181 1100l104 282h267l104 -282h-133l-105 200l-104 -200h-133zM274 332q0 -109 34 -160q34 -50 108 -50q61 0 99 43 q39 44 39 175v24v274q0 134 -40 177q-40 44 -100 44q-65 0 -103 -47q-37 -46 -37 -164v-284v-32zM419 1100zM419 1100z" />
<glyph unicode="&#xf5;" horiz-adv-x="831" d="M93 321v39v265q0 212 87 291q88 80 234 80q216 0 283 -152q38 -87 38 -229v-255q0 -132 -23 -200q-59 -175 -293 -175q-169 0 -248 80q-78 81 -78 256zM178 1145q0 155 28 194q28 40 75 40q69 0 137 -47q69 -47 99 -47q33 0 35 67l1 16h106q0 -142 -30 -188 q-29 -46 -72 -46q-60 0 -133 51q-73 52 -99 52q-38 0 -38 -68v-24h-109zM274 332q0 -109 34 -160q34 -50 108 -50q61 0 99 43q39 44 39 175v24v274q0 134 -40 177q-40 44 -100 44q-65 0 -103 -47q-37 -46 -37 -164v-284v-32zM419 1100zM419 1100z" />
<glyph unicode="&#xf6;" horiz-adv-x="831" d="M93 321v39v265q0 212 87 291q88 80 234 80q216 0 283 -152q38 -87 38 -229v-255q0 -132 -23 -200q-59 -175 -293 -175q-169 0 -248 80q-78 81 -78 256zM165 1174v182h194v-182h-194zM274 332q0 -109 34 -160q34 -50 108 -50q61 0 99 43q39 44 39 175v24v274 q0 134 -40 177q-40 44 -100 44q-65 0 -103 -47q-37 -46 -37 -164v-284v-32zM419 1100zM419 1100zM478 1174v182h194v-182h-194z" />
<glyph unicode="&#xf7;" horiz-adv-x="1360" d="M297 509v124h790v-124h-790zM594 339q0 39 28 67q29 29 70 29q40 0 69 -29q29 -28 29 -68t-29 -68t-69 -28q-41 0 -70 28q-28 28 -28 69zM594 804q0 39 28 67q29 29 70 29q40 0 69 -29q29 -28 29 -68q0 -38 -27 -67t-71 -29q-43 0 -71 28q-27 28 -27 69z" />
<glyph unicode="&#xf8;" horiz-adv-x="831" d="M93 346v15v243v34q0 191 85 274q86 84 236 84q59 0 118 -17l36 121l62 -19l-37 -123q69 -37 105 -118q37 -81 37 -232v-244v-34q0 -185 -81 -265q-80 -80 -242 -80q-27 0 -54 2q-27 3 -51 9l-47 -160l-62 19l45 159q-74 35 -112 110t-38 222zM274 364q0 -126 23 -173 l190 641q-27 27 -72 27q-66 0 -104 -44q-37 -44 -37 -158v-35v-258zM349 137q30 -15 65 -15q69 0 104 47q36 48 36 166v29v254q0 114 -16 153z" />
<glyph unicode="&#xf9;" horiz-adv-x="831" d="M0 996zM102 243v73v665h181v-658v-51q0 -150 124 -150q156 0 156 211v648h181v-981h-181v89q-87 -104 -216 -104q-99 0 -172 56q-73 57 -73 202zM193 1412h218l109 -312h-149zM428 1100zM428 1100zM586 0z" />
<glyph unicode="&#xfa;" horiz-adv-x="831" d="M0 996zM102 243v73v665h181v-658v-51q0 -150 124 -150q156 0 156 211v648h181v-981h-181v89q-87 -104 -216 -104q-99 0 -172 56q-73 57 -73 202zM327 1100l109 312h218l-178 -312h-149zM428 1100zM428 1100zM586 0z" />
<glyph unicode="&#xfb;" horiz-adv-x="831" d="M0 996zM102 243v73v665h181v-658v-51q0 -150 124 -150q156 0 156 211v648h181v-981h-181v89q-87 -104 -216 -104q-99 0 -172 56q-73 57 -73 202zM190 1100l104 282h267l104 -282h-133l-105 200l-104 -200h-133zM428 1100zM428 1100zM586 0z" />
<glyph unicode="&#xfc;" horiz-adv-x="831" d="M0 996zM102 243v73v665h181v-658v-51q0 -150 124 -150q156 0 156 211v648h181v-981h-181v89q-87 -104 -216 -104q-99 0 -172 56q-73 57 -73 202zM174 1174v182h194v-182h-194zM428 1100zM428 1100zM487 1174v182h194v-182h-194zM586 0z" />
<glyph unicode="&#xfd;" horiz-adv-x="831" d="M0 996zM68 981h184l172 -721l181 721h176l-379 -1337h-170l102 334zM337 1100l109 312h218l-178 -312h-149zM438 1100zM438 1100z" />
<glyph unicode="&#xfe;" horiz-adv-x="831" d="M105 -356v1768h181v-535q85 119 223 119q106 0 172 -73t66 -243v-362q0 -333 -252 -333q-58 0 -109 21q-50 21 -100 83v-445h-181zM286 365q0 -150 37 -197q38 -46 107 -46q78 0 107 59t29 203v267q0 126 -33 167q-32 41 -100 41q-83 0 -115 -61t-32 -189v-244z" />
<glyph unicode="&#xff;" horiz-adv-x="831" d="M0 996zM68 981h184l172 -721l181 721h176l-379 -1337h-170l102 334zM184 1174v182h194v-182h-194zM438 1100zM438 1100zM497 1174v182h194v-182h-194z" />
<glyph unicode="&#x152;" horiz-adv-x="1397" d="M136 420v532v74q0 194 94 286q95 92 347 92q31 0 76 -2q46 -1 114 -5h528v-158h-401v-448h401v-158h-401v-475h401v-158h-528q-41 -4 -101 -6q-60 -1 -106 -1q-249 0 -337 103q-87 103 -87 324zM329 418q0 -169 62 -218t159 -49q67 0 151 17v1065q-54 13 -124 13 q-135 0 -192 -62q-56 -61 -56 -214v-490v-62z" />
<glyph unicode="&#x153;" horiz-adv-x="1284" d="M93 360v283q0 353 302 353q111 0 170 -45q60 -45 84 -133q40 104 99 141q60 37 150 37q132 0 207 -77q76 -77 76 -230v-28v-207h-446v-102q0 -141 38 -186q38 -44 101 -44q64 0 93 39q30 40 30 136h181q0 -161 -76 -237q-75 -75 -214 -75q-116 0 -172 50q-56 51 -79 143 q-17 -96 -83 -145q-66 -48 -168 -48q-138 0 -216 85q-77 86 -77 290zM274 355q0 -132 38 -183q38 -50 101 -50q58 0 99 47q42 48 42 184v247v57q0 115 -37 158q-36 44 -101 44q-142 0 -142 -195v-309zM735 591h265v62v37q0 99 -37 134t-91 35q-71 0 -104 -49t-33 -130v-89z " />
<glyph unicode="&#x178;" d="M0 1412zM74 1397h220l197 -606l222 606h193l-327 -813v-584h-193v584zM256 1590v182h194v-182h-194zM510 1516zM510 1516zM569 1590v182h194v-182h-194z" />
<glyph unicode="&#x2c6;" d="M238 1100l104 282h267l104 -282h-133l-105 200l-104 -200h-133zM476 1100z" />
<glyph unicode="&#x2dc;" d="M268 1145q0 155 28 194q28 40 75 40q69 0 137 -47q69 -47 99 -47q33 0 35 67l1 16h106q0 -142 -30 -188q-29 -46 -72 -46q-60 0 -133 51q-73 52 -99 52q-38 0 -38 -68v-24h-109zM509 1100z" />
<glyph unicode="&#x2000;" horiz-adv-x="940" />
<glyph unicode="&#x2001;" horiz-adv-x="1881" />
<glyph unicode="&#x2002;" horiz-adv-x="940" />
<glyph unicode="&#x2003;" horiz-adv-x="1881" />
<glyph unicode="&#x2004;" horiz-adv-x="627" />
<glyph unicode="&#x2005;" horiz-adv-x="470" />
<glyph unicode="&#x2006;" horiz-adv-x="313" />
<glyph unicode="&#x2007;" horiz-adv-x="313" />
<glyph unicode="&#x2008;" horiz-adv-x="235" />
<glyph unicode="&#x2009;" horiz-adv-x="376" />
<glyph unicode="&#x200a;" horiz-adv-x="104" />
<glyph unicode="&#x2010;" horiz-adv-x="453" d="M89 429v157h268v-157h-268z" />
<glyph unicode="&#x2011;" horiz-adv-x="453" d="M89 429v157h268v-157h-268z" />
<glyph unicode="&#x2012;" horiz-adv-x="453" d="M89 429v157h268v-157h-268z" />
<glyph unicode="&#x2013;" d="M57 429v140h832v-140h-832z" />
<glyph unicode="&#x2014;" horiz-adv-x="1360" d="M97 429v140h1174v-140h-1174z" />
<glyph unicode="&#x2018;" horiz-adv-x="453" d="M88 951l169 446h128l-93 -446h-204z" />
<glyph unicode="&#x2019;" horiz-adv-x="453" d="M89 951l93 446h204l-169 -446h-128z" />
<glyph unicode="&#x201a;" horiz-adv-x="453" d="M89 -220l93 446h204l-169 -446h-128z" />
<glyph unicode="&#x201c;" horiz-adv-x="718" d="M77 951l169 446h128l-93 -446h-204zM374 951l169 446h128l-93 -446h-204z" />
<glyph unicode="&#x201d;" horiz-adv-x="718" d="M93 951l93 446h204l-169 -446h-128zM390 951l93 446h204l-169 -446h-128z" />
<glyph unicode="&#x201e;" horiz-adv-x="718" d="M93 -220l93 446h204l-169 -446h-128zM390 -220l93 446h204l-169 -446h-128z" />
<glyph unicode="&#x2022;" horiz-adv-x="1020" d="M139 734q0 153 108 262q109 109 264 109q153 0 262 -109t109 -263t-111 -263q-110 -108 -261 -108t-261 108q-110 109 -110 264z" />
<glyph unicode="&#x2026;" horiz-adv-x="1360" d="M145 0v180h166v-180h-166zM591 0v180h166v-180h-166zM1037 0v180h166v-180h-166z" />
<glyph unicode="&#x202f;" horiz-adv-x="376" />
<glyph unicode="&#x2039;" horiz-adv-x="491" d="M71 495l222 -357h150l-199 357l199 357h-150z" />
<glyph unicode="&#x203a;" horiz-adv-x="491" d="M69 138l199 357l-199 357h150l222 -357l-222 -357h-150z" />
<glyph unicode="&#x205f;" horiz-adv-x="470" />
<glyph unicode="&#x20ac;" d="M48 526l40 129h110v119h-150l40 129h110v105q0 229 96 316q97 88 270 88q165 0 254 -74q90 -73 90 -257v-48h-193v58q0 84 -36 124q-35 41 -104 41q-105 0 -145 -51q-39 -50 -39 -166v-136h327l-40 -129h-287v-119h268l-40 -129h-228v-140q0 -139 49 -192q50 -53 129 -53 q81 0 118 52q37 53 37 216h187v-68q0 -197 -92 -277q-92 -79 -267 -79q-202 0 -278 100t-76 259v182h-150z" />
<glyph unicode="&#x2122;" horiz-adv-x="1246" d="M68 1299v84h382v-84h-149v-526h-84v526h-149zM524 773v610h162l112 -481l100 481h160v-610h-84v550l-124 -550h-108l-123 550h-11v-550h-84z" />
<glyph unicode="&#x25fc;" horiz-adv-x="980" d="M0 0v980h980v-980h-980z" />
</font>
</defs>
</svg>
