<?xml version="1.0" standalone="no"?>
<!DOCTYPE svg PUBLIC "-//W3C//DTD SVG 1.1//EN" "http://www.w3.org/Graphics/SVG/1.1/DTD/svg11.dtd" >
<svg xmlns="http://www.w3.org/2000/svg" xmlns:xlink="http://www.w3.org/1999/xlink" version="1.1">
<metadata></metadata>
<defs>
<font id="univers_condensedbold" horiz-adv-x="906" >
<font-face units-per-em="2048" ascent="1638" descent="-410" />
<missing-glyph horiz-adv-x="453" />
<glyph horiz-adv-x="0" />
<glyph unicode="&#xd;" horiz-adv-x="453" />
<glyph unicode=" "  horiz-adv-x="453" />
<glyph unicode="&#x09;" horiz-adv-x="453" />
<glyph unicode="&#xa0;" horiz-adv-x="453" />
<glyph unicode="!" horiz-adv-x="604" d="M185 0v258h259v-258h-259zM185 1397h259l-29 -1010h-201z" />
<glyph unicode="&#x22;" horiz-adv-x="831" d="M89 1397h259l-38 -461h-183zM471 1397h259l-38 -461h-183z" />
<glyph unicode="#" horiz-adv-x="982" d="M-24 370l54 176h131l107 327h-144l49 176h152l113 348h185l-113 -348h188l112 348h185l-112 -348h137l-49 -176h-145l-100 -311v-16h145l-54 -176h-152l-120 -370h-189l124 370h-190l-121 -370h-185l121 370h-129zM352 546h185l105 327h-189l-101 -311v-16z" />
<glyph unicode="$" horiz-adv-x="982" d="M148 476v55h255q0 -120 24 -146t69 -26q92 0 92 105q0 72 -38 100q-37 28 -110 60q-201 90 -245 155q-43 66 -43 158q0 106 50 174q51 69 181 89v238h222v-238q116 -14 173 -81q58 -66 58 -184v-47h-255v36q0 121 -81 121q-84 0 -84 -89q0 -46 19 -71q20 -24 72 -49 l88 -41q134 -68 178 -108q44 -39 59 -80q20 -52 20 -119q0 -136 -59 -197q-59 -60 -188 -87v-268h-222v268q-131 20 -183 91t-52 181z" />
<glyph unicode="%" horiz-adv-x="1360" d="M74 876v58v261q0 99 42 158t189 59q148 0 189 -59q42 -59 42 -171v-248q0 -120 -13 -162q-37 -130 -214 -130q-130 0 -183 54q-52 54 -52 180zM239 859q0 -101 66 -101q64 0 65 96l1 78v265q0 99 -66 99t-66 -103v-261v-73zM267 -80l665 1521h152l-665 -1521h-152z M830 230v47v257q0 112 46 166q46 55 185 55q131 0 181 -56q50 -55 50 -163v-259v-37q0 -153 -59 -204t-168 -51q-127 0 -181 51q-54 52 -54 194zM995 202q0 -101 66 -101t66 99v75v260q0 104 -66 104t-66 -107v-257v-73z" />
<glyph unicode="&#x26;" horiz-adv-x="1284" d="M85 387q0 253 249 384q-155 176 -155 338q0 132 95 217q96 86 280 86q168 0 257 -81q90 -80 90 -197q0 -212 -267 -363l252 -342q19 58 19 189v153h214v-182q0 -184 -92 -329l196 -260h-295l-65 93q-137 -108 -332 -108q-211 0 -329 111q-117 112 -117 291zM331 403 q0 -105 71 -173q72 -67 173 -67q79 0 174 68l-300 384q-118 -83 -118 -212zM425 1111q0 -93 108 -201q122 93 122 201q0 52 -33 87q-32 36 -80 36q-46 0 -82 -33q-35 -33 -35 -90z" />
<glyph unicode="'" horiz-adv-x="453" d="M89 1397h259l-38 -461h-183z" />
<glyph unicode="(" horiz-adv-x="453" d="M93 615q0 -350 156 -806h179q-134 425 -134 806q0 375 134 782h-176q-159 -425 -159 -782z" />
<glyph unicode=")" horiz-adv-x="453" d="M48 -191q134 425 134 806q0 375 -134 782h176q159 -425 159 -782q0 -350 -156 -806h-179z" />
<glyph unicode="*" horiz-adv-x="982" d="M178 1005v169l238 -30l-140 183l144 85l84 -207l84 207l144 -85l-140 -183l238 30v-169l-238 30l140 -183l-144 -85l-84 207l-84 -207l-144 85l140 183z" />
<glyph unicode="+" horiz-adv-x="1360" d="M208 451v146h386v386h146v-386h386v-146h-386v-386h-146v386h-386z" />
<glyph unicode="," horiz-adv-x="453" d="M74 -226l55 461h255l-131 -461h-179z" />
<glyph unicode="-" horiz-adv-x="453" d="M74 470v189h297v-189h-297z" />
<glyph unicode="." horiz-adv-x="453" d="M99 0v258h259v-258h-259z" />
<glyph unicode="/" horiz-adv-x="453" d="M61 -189l178 1586h179l-178 -1586h-179z" />
<glyph unicode="0" horiz-adv-x="982" d="M107 355v93v621q0 166 88 254q89 89 287 89q217 0 305 -89q89 -88 89 -292v-583v-78q0 -223 -96 -304t-279 -81q-207 0 -301 82q-93 82 -93 288zM371 349q0 -102 29 -138q29 -35 97 -35q53 0 84 34q31 35 31 138v97v612q0 97 -31 130q-31 34 -95 34q-48 0 -82 -31 q-33 -30 -33 -142v-603v-96z" />
<glyph unicode="1" horiz-adv-x="982" d="M223 951v226q97 64 143 114q46 51 67 106h247v-1397h-264v1106q-89 -113 -193 -155z" />
<glyph unicode="2" horiz-adv-x="982" d="M124 0v237q33 42 153 199t215 313q71 115 91 176q20 62 20 158q0 74 -26 106q-25 32 -79 32q-102 0 -102 -109v-116h-264v89q0 167 89 247q90 80 287 80q178 0 268 -76q91 -75 91 -271q0 -125 -26 -209t-94 -191q-28 -44 -140 -192q-60 -77 -111 -134q-50 -57 -121 -134 h504v-205h-755z" />
<glyph unicode="3" horiz-adv-x="982" d="M115 302v84h264v-78q0 -132 105 -132q56 0 83 32q27 33 27 160v12v62q0 123 -34 157t-116 34h-91v191h48q102 0 147 26q46 27 46 109v50v99q0 65 -27 89q-26 24 -75 24h-10q-39 0 -65 -26t-26 -113v-27h-264v43q0 175 90 244q91 70 273 70q222 0 295 -86q73 -85 73 -263 v-31q0 -142 -38 -207q-38 -64 -143 -94q94 -20 137 -82q44 -61 44 -190v-22v-115q0 -202 -107 -270q-106 -67 -265 -67q-190 0 -281 75q-90 75 -90 242z" />
<glyph unicode="4" horiz-adv-x="982" d="M66 305v277l353 815h375v-901h152v-191h-152v-305h-264v305h-464zM251 496h279v654z" />
<glyph unicode="5" horiz-adv-x="982" d="M124 316v41h264q0 -78 8 -117q13 -64 98 -64q76 0 98 40q22 39 22 149v203q0 109 -24 140q-23 32 -80 32q-56 0 -87 -33q-31 -32 -31 -162h-264l12 852h701v-205h-454v-1v-343q58 53 108 68q51 15 114 15q131 0 200 -71q69 -70 69 -236v-266q0 -218 -93 -296 q-93 -77 -278 -77q-162 0 -241 36q-62 28 -102 90t-40 205z" />
<glyph unicode="6" horiz-adv-x="982" d="M115 420v592q0 237 103 318q104 82 290 82q184 0 268 -77q85 -77 85 -239v-41h-264v21q-1 145 -98 145q-110 0 -116 -94q-4 -74 -4 -318q97 80 216 80q214 0 256 -178q18 -72 18 -306v-45q0 -210 -95 -293q-95 -82 -282 -82q-211 0 -294 91q-83 92 -83 344zM379 320 q0 -86 29 -115q30 -29 94 -29q48 0 75 23q28 24 28 103v100v179q0 68 -26 92q-26 25 -82 25q-59 0 -89 -29q-29 -29 -29 -113v-154v-82z" />
<glyph unicode="7" horiz-adv-x="982" d="M104 1192v205h743v-207l-348 -1190h-292l381 1192h-484z" />
<glyph unicode="8" horiz-adv-x="982" d="M111 326v17v82q0 183 59 242t135 69q-107 22 -151 84q-43 62 -43 163v25v88q0 178 97 247t280 69q225 0 301 -88t76 -238v-89v-14q0 -112 -46 -170t-139 -77q94 -13 139 -80q46 -66 46 -188v-125v-30q0 -189 -97 -259q-96 -69 -268 -69q-227 0 -308 82q-81 83 -81 259z M375 318q0 -90 24 -116q25 -26 90 -26q57 0 84 26q28 27 28 92v65v96q0 101 -17 143q-16 42 -85 42h-15q-55 0 -82 -27q-27 -26 -27 -115v-139v-41zM375 992q0 -109 26 -135t91 -26q51 0 77 21q27 22 29 71q3 43 3 76v96q0 85 -31 105q-31 21 -75 21h-8q-51 0 -82 -22 q-30 -22 -30 -107v-93v-7z" />
<glyph unicode="9" horiz-adv-x="982" d="M115 301v70h264v-92q0 -103 112 -103q80 0 97 51q17 52 17 140v215q-71 -74 -224 -74q-142 0 -204 81t-62 283v120q0 261 98 340q99 80 285 80q220 0 295 -97q76 -96 76 -276v-653q0 -221 -89 -311t-297 -90q-216 0 -292 84t-76 232zM379 844q0 -87 27 -116 q28 -29 84 -29q66 0 90 38q25 39 25 135v193q0 86 -22 121q-21 35 -93 35q-69 0 -90 -41t-21 -126v-182v-28z" />
<glyph unicode=":" horiz-adv-x="453" d="M99 0v258h259v-258h-259zM99 700v258h259v-258h-259z" />
<glyph unicode=";" horiz-adv-x="453" d="M74 -226l55 461h255l-131 -461h-179zM99 700v258h259v-258h-259z" />
<glyph unicode="&#x3c;" horiz-adv-x="2039" d="M412 547l1219 -550v199l-962 426l962 426v199l-1219 -550v-150z" />
<glyph unicode="=" horiz-adv-x="1360" d="M208 291v146h922v-146h-922zM208 615v146h922v-146h-922z" />
<glyph unicode="&#x3e;" horiz-adv-x="2039" d="M410 -3v199l962 426l-962 426v199l1219 -550v-150z" />
<glyph unicode="?" d="M99 1054v93q0 134 85 199q86 66 250 66h22q175 0 246 -83q72 -82 72 -212q0 -145 -76 -267q-75 -121 -90 -144q-23 -34 -52 -84q-28 -49 -28 -126v-104h-211v151q0 115 37 186q38 72 96 170q65 112 65 211q0 72 -19 100q-19 29 -57 29q-42 0 -62 -24q-19 -23 -19 -72v-89 h-259zM298 0v258h259v-258h-259z" />
<glyph unicode="@" horiz-adv-x="1360" d="M59 345v532q0 550 623 550q299 0 451 -114t152 -502v-339q0 -206 -67 -273q-67 -66 -197 -66q-80 0 -132 29t-67 95q-53 -81 -100 -100q-46 -18 -111 -18q-116 0 -175 68q-58 68 -58 244v264q0 301 208 301q112 0 183 -103v87h203v-597q0 -57 9 -77t32 -20q32 0 47 19 q16 20 16 77v482q0 370 -379 370q-423 0 -423 -381v-522q0 -255 96 -341q96 -85 289 -85q76 0 144 12q69 12 170 38v-193q-157 -34 -325 -34q-339 0 -464 149t-125 448zM593 450q0 -88 18 -113q19 -25 56 -25q55 0 72 33q18 34 18 105v265q0 126 -83 126q-78 0 -80 -111 q-1 -111 -1 -280z" />
<glyph unicode="A" horiz-adv-x="1133" d="M0 1412zM58 0l342 1397h344l342 -1397h-281l-63 305h-340l-63 -305h-281zM445 516h254l-127 625zM572 1516zM833 0z" />
<glyph unicode="B" horiz-adv-x="1095" d="M134 0v1397h412h104q184 0 259 -95q76 -95 76 -269q0 -162 -74 -229q-73 -67 -172 -82q148 -19 206 -98t58 -232q0 -232 -99 -312q-98 -80 -313 -80h-80h-377zM420 211h72q136 0 180 39q45 40 45 158q0 105 -38 157q-38 53 -126 53h-61h-72v-407zM420 829h58 q139 0 180 43t41 136q0 87 -38 132q-38 46 -132 46h-20h-89v-357z" />
<glyph unicode="C" horiz-adv-x="1057" d="M112 492v95v383q0 255 116 348q116 94 319 94q204 0 310 -91t106 -298v-72h-286q0 161 -33 205q-32 45 -96 45q-87 0 -119 -68q-31 -67 -31 -242v-295q0 -280 37 -340q38 -60 113 -60q76 0 110 51t34 195v48h286v-71q0 -225 -97 -330q-97 -104 -322 -104q-227 0 -337 104 q-110 105 -110 403zM514 0zM544 1516z" />
<glyph unicode="D" horiz-adv-x="1133" d="M0 1412zM143 0v1397h372h41q245 0 356 -111q112 -111 112 -411v-351q0 -310 -108 -417q-107 -107 -346 -107h-55h-372zM429 211h76q130 0 181 56q52 57 52 210v46v365q0 163 -45 230q-45 68 -200 68h-64v-975zM584 1516z" />
<glyph unicode="E" horiz-adv-x="944" d="M0 1412zM138 0v1397h702v-211h-416v-364h403v-211h-403v-400h429v-211h-715zM516 1516zM604 0z" />
<glyph unicode="F" d="M134 0v1397h672v-211h-386v-379h364v-211h-364v-596h-286z" />
<glyph unicode="G" horiz-adv-x="1133" d="M125 490v114v306q0 252 103 377q104 125 358 125q239 0 329 -102q91 -101 91 -287v-57h-286v60q0 90 -38 132q-38 43 -109 43q-75 0 -119 -52q-43 -51 -43 -263v-282v-88q0 -214 43 -267q44 -53 131 -53q66 0 135 24v311h-130v211h416v-704q-255 -53 -444 -53 q-210 0 -324 95q-113 96 -113 410zM583 1516zM610 0z" />
<glyph unicode="H" horiz-adv-x="1133" d="M143 0v1397h286v-568h279v568h286v-1397h-286v618h-279v-618h-286z" />
<glyph unicode="I" horiz-adv-x="529" d="M0 1412zM125 0v1397h286v-1397h-286zM268 0zM268 1516z" />
<glyph unicode="J" horiz-adv-x="982" d="M63 360v115h286v-105q0 -107 27 -141q28 -33 77 -33q53 0 76 34q24 34 24 123v110v934h286v-932v-87q0 -227 -105 -310t-298 -83q-213 0 -293 102t-80 273z" />
<glyph unicode="K" horiz-adv-x="1095" d="M143 0v1397h286v-1397h-286zM429 753l316 644h308l-316 -622l325 -775h-313zM570 0z" />
<glyph unicode="L" horiz-adv-x="868" d="M0 1412zM143 0v1397h286v-1186h372v-211h-658zM315 1516zM482 0z" />
<glyph unicode="M" horiz-adv-x="1511" d="M125 0v1397h406l227 -1053l227 1053h406v-1397h-237v1195l-253 -1195h-286l-253 1195v-1195h-237z" />
<glyph unicode="N" horiz-adv-x="1171" d="M0 1412zM147 0v1397h415l254 -1157v1157h237v-1397h-415l-254 1151v-1151h-237zM600 0zM621 1516z" />
<glyph unicode="O" horiz-adv-x="1133" d="M125 441v85v501q0 208 118 296q119 89 323 89q199 0 319 -87q121 -87 121 -305v-494v-70q0 -277 -112 -374q-111 -97 -329 -97q-217 0 -329 95q-111 95 -111 361zM411 451q0 -127 33 -191t122 -64q85 0 119 61q35 62 35 189v80v395q0 174 -41 227t-114 53q-80 0 -117 -58 t-37 -211v-406v-75zM566 1516z" />
<glyph unicode="P" horiz-adv-x="1057" d="M129 0v1397h283h186q202 0 292 -95q90 -94 90 -310q0 -265 -107 -349q-107 -83 -361 -83h-97v-560h-286zM415 771h76q115 0 159 35q44 36 44 169q0 125 -39 168t-164 43h-76v-415z" />
<glyph unicode="Q" horiz-adv-x="1171" d="M134 433v160v387q0 240 110 336t331 96q226 0 333 -94q107 -93 107 -339v-150v-297q0 -115 -24 -202q-23 -86 -107 -160l220 14v-191h-189q-60 0 -134 -4q-73 -4 -207 -4q-227 0 -334 85q-106 86 -106 363zM420 441q0 -156 44 -201q44 -44 107 -44q67 0 112 53 q46 53 46 316v370q0 151 -35 208q-34 58 -111 58q-81 0 -122 -61t-41 -245v-330v-124z" />
<glyph unicode="R" horiz-adv-x="1057" d="M0 1412zM125 0v1397h398h47q225 0 308 -96t83 -269q0 -149 -50 -231t-173 -112q141 -30 183 -108t42 -194l-1 -229q0 -80 21 -158h-286q-18 110 -18 184v206q0 101 -40 143t-141 42h-87v-575h-286zM411 786h86q90 0 134 42q44 43 44 156q0 109 -36 155q-35 47 -142 47 h-86v-400zM523 1516zM569 0z" />
<glyph unicode="S" horiz-adv-x="1095" d="M104 370v76h286v-42q0 -132 40 -170q41 -38 109 -38q82 0 119 46q37 47 37 130q0 71 -44 110q-44 40 -121 84l-162 94q-87 54 -168 128t-81 238q0 190 109 288q110 98 324 98q232 0 323 -94q91 -93 91 -269v-83h-286v56q0 107 -35 143t-100 36q-68 0 -104 -40 q-36 -39 -36 -112q0 -89 72 -141t222 -137q165 -94 223 -170q59 -75 59 -217q0 -209 -113 -304q-112 -95 -336 -95q-225 0 -327 90q-101 90 -101 295zM511 0zM552 1516z" />
<glyph unicode="T" horiz-adv-x="1020" d="M0 1412zM60 1186v211h910v-211h-312v-1186h-286v1186h-312zM487 0zM515 1516z" />
<glyph unicode="U" horiz-adv-x="1133" d="M0 1412zM129 436v56v905h286v-910v-78q0 -143 44 -178q45 -35 98 -35q73 0 112 39q40 39 40 163v89v910h286v-905v-46q0 -275 -115 -368t-311 -93q-236 0 -338 102q-102 103 -102 349zM559 1516zM623 0z" />
<glyph unicode="V" horiz-adv-x="1057" d="M59 1397h286l185 -1080l200 1080h277l-312 -1397h-339z" />
<glyph unicode="W" horiz-adv-x="1586" d="M59 1397h259l153 -1070l183 1070h295l179 -1070l145 1070h241l-223 -1397h-330l-173 1015l-161 -1015h-330z" />
<glyph unicode="X" horiz-adv-x="1133" d="M71 0l326 726l-295 671h295l181 -447l178 447h281l-301 -666l319 -731h-282l-207 491l-214 -491h-281z" />
<glyph unicode="Y" horiz-adv-x="1057" d="M0 1412zM44 1397h313l172 -568l175 568h295l-327 -873v-524h-286v524zM522 1516z" />
<glyph unicode="Z" horiz-adv-x="944" d="M0 1412zM67 0v262l526 924h-508v211h785v-262l-526 -924h539v-211h-816zM490 1516z" />
<glyph unicode="[" horiz-adv-x="453" d="M97 -191h296v137h-89v1314h89v137h-296v-1588z" />
<glyph unicode="\" horiz-adv-x="453" d="M64 1397h182l175 -1590h-182z" />
<glyph unicode="]" horiz-adv-x="453" d="M67 -54h89v1314h-89v137h296v-1588h-296v137z" />
<glyph unicode="^" horiz-adv-x="1020" d="M115 992v93q262 179 357 446h105q106 -262 357 -446v-93q-223 73 -410 248q-178 -169 -409 -248z" />
<glyph unicode="_" horiz-adv-x="1020" d="M0 -400h1020v-105h-1020v105z" />
<glyph unicode="`" horiz-adv-x="982" d="M268 1412h295l106 -312h-223zM517 1100z" />
<glyph unicode="a" d="M81 279q0 198 89 268q89 71 296 71h76v84q0 76 -22 98q-21 23 -63 23q-45 0 -70 -20q-24 -20 -24 -69v-35h-258v23q0 142 86 208t259 66q350 0 350 -294v-99v-603h-254v89q-54 -60 -109 -82q-54 -22 -124 -22q-118 0 -175 72t-57 222zM339 291q0 -133 90 -133q45 0 79 38 q34 39 34 180v91h-31h-31q-78 0 -110 -48q-31 -48 -31 -128zM460 1100zM575 0z" />
<glyph unicode="b" d="M97 0v1412h258v-520q99 104 225 104q113 0 174 -70q62 -69 62 -284v-45v-306q0 -306 -253 -306q-68 0 -117 20q-48 21 -99 69v-74h-250zM355 339q0 -181 104 -181q57 0 78 48t21 165v287q0 165 -95 165q-62 0 -85 -59t-23 -183v-242z" />
<glyph unicode="c" horiz-adv-x="831" d="M77 368v296q0 160 82 246t266 86q175 0 250 -87q76 -86 76 -256v-29h-258v58q0 93 -22 117q-21 24 -59 24q-30 0 -54 -23q-23 -22 -23 -142v-287q0 -53 4 -133q5 -80 69 -80h7q27 0 52 18q26 18 26 118v77h258v-83q0 -166 -97 -235q-96 -68 -248 -68q-74 0 -141 17 q-66 17 -123 78q-65 69 -65 288zM414 0zM425 1100z" />
<glyph unicode="d" d="M97 335v45v305q0 157 59 234q60 77 175 77q131 0 227 -89v505h258v-1412h-246v104q-82 -119 -218 -119q-123 0 -189 72q-66 73 -66 278zM355 326q0 -168 102 -168q58 0 79 51q22 51 22 188v237q0 189 -107 189q-54 0 -75 -42q-21 -41 -21 -168v-287z" />
<glyph unicode="e" horiz-adv-x="868" d="M77 364v241q0 213 84 302q85 89 277 89q208 0 290 -84q83 -84 83 -332v-141h-476v-141q0 -88 29 -114t76 -26q62 0 87 37q26 37 26 130v17h258v-34q0 -187 -104 -255q-103 -68 -266 -68q-178 0 -271 74t-93 305zM335 590h218v117q0 51 -27 83q-26 33 -81 33 q-61 0 -86 -28q-24 -27 -24 -91v-114zM447 1100zM507 0z" />
<glyph unicode="f" horiz-adv-x="642" d="M44 808v173h134v170q0 171 64 221q64 51 170 51h22q70 0 151 -7v-166h-51h-5q-56 0 -75 -25q-18 -25 -18 -102v-142h149v-173h-149v-808h-258v808h-134z" />
<glyph unicode="g" d="M93 -70h258v-27q0 -52 25 -75q25 -22 71 -22q67 0 87 41t20 169v104q-83 -105 -223 -105q-122 0 -180 75t-58 247v34v290q0 188 69 261q70 74 186 74q75 0 126 -29t96 -85v99h242v-995q0 -213 -97 -283q-96 -70 -279 -70q-176 0 -260 58q-83 59 -83 200v39zM351 369 q0 -111 25 -146t70 -35q52 0 80 46q28 47 28 143v242q0 111 -25 157q-24 47 -77 47q-47 0 -74 -39q-27 -38 -27 -162v-245v-8zM453 1100z" />
<glyph unicode="h" horiz-adv-x="944" d="M125 0v1412h258v-520q93 104 221 104q109 0 174 -72q66 -71 66 -231v-693h-258v662q0 161 -89 161q-56 0 -85 -47t-29 -162v-614h-258z" />
<glyph unicode="i" horiz-adv-x="491" d="M117 0v981h258v-981h-258zM117 1174v241h258v-241h-258zM244 0z" />
<glyph unicode="j" horiz-adv-x="491" d="M-12 -207h18q69 0 90 34t21 105v1049h258v-1058v-29q0 -166 -63 -220t-188 -54q-69 0 -136 5v168zM117 1174v241h258v-241h-258z" />
<glyph unicode="k" d="M117 0v1412h258v-1412h-258zM375 540l187 441h274l-191 -425l203 -556h-274zM445 0z" />
<glyph unicode="l" horiz-adv-x="491" d="M121 0v1412h258v-1412h-258zM250 0zM256 1516z" />
<glyph unicode="m" horiz-adv-x="1360" d="M113 0v981h238v-104q74 119 237 119q68 0 124 -26t96 -108q62 134 237 134q127 0 187 -70q61 -70 61 -243v-49v-634h-258v640v32q0 94 -26 122q-25 29 -67 29q-50 0 -80 -37t-30 -127v-19v-640h-258v640v15q0 109 -27 138q-26 30 -68 30q-57 0 -83 -46q-25 -46 -25 -137 v-640h-258z" />
<glyph unicode="n" horiz-adv-x="944" d="M121 0v981h254v-104q92 119 233 119q106 0 169 -62q63 -61 63 -203v-101v-630h-258v633v74q0 116 -91 116q-56 0 -84 -46q-28 -45 -28 -144v-633h-258zM481 0zM481 1100z" />
<glyph unicode="o" d="M93 332v72v228q0 211 95 287q95 77 259 77h19q150 0 248 -74t98 -290v-228v-79q0 -190 -99 -265q-98 -75 -255 -75q-196 0 -281 85q-84 86 -84 262zM351 322q0 -104 28 -134t67 -30h7q50 0 75 32q26 32 26 126v11v331q0 93 -24 129q-23 36 -81 36q-49 0 -74 -35 q-24 -35 -24 -128v-333v-5zM453 1100z" />
<glyph unicode="p" d="M97 -356v1337h250v-89q91 104 208 104h8q125 0 189 -73q64 -72 64 -254v-40v-310q0 -209 -70 -272q-69 -62 -166 -62q-127 0 -225 89v-430h-258zM355 360q0 -116 27 -159q28 -43 80 -43q46 0 71 37t25 181v16v247q0 69 -17 126q-16 58 -81 58q-60 0 -83 -56 q-22 -56 -22 -167v-240z" />
<glyph unicode="q" d="M97 325v39v303q0 185 64 257t187 72q70 0 121 -23t97 -81v89h250v-1337h-258v430q-76 -60 -122 -75q-46 -14 -103 -14q-115 0 -176 67q-60 67 -60 273zM355 329q0 -171 97 -171q53 0 79 47q27 47 27 176v246q0 196 -102 196q-57 0 -79 -46t-22 -170v-278z" />
<glyph unicode="r" horiz-adv-x="680" d="M117 0v981h258v-136q43 90 103 120q60 31 150 31v-224q-32 4 -44 4q-11 1 -20 1q-109 0 -149 -54q-40 -53 -40 -198v-525h-258zM239 0zM373 1100z" />
<glyph unicode="s" horiz-adv-x="831" d="M66 253v74h258v-63q0 -80 29 -104q30 -24 65 -24q42 0 72 28t30 83q0 75 -58 110q-57 36 -138 75q-174 81 -212 141t-38 148q0 139 87 207q88 68 258 68q176 0 257 -67q82 -66 82 -192v-53h-258v55q0 106 -79 106q-53 0 -71 -29t-18 -62q0 -56 40 -88q41 -31 122 -68 q200 -93 242 -159t42 -160q0 -146 -91 -220q-90 -74 -268 -74q-194 0 -274 74q-79 74 -79 194zM420 0zM420 1100z" />
<glyph unicode="t" horiz-adv-x="642" d="M40 808v173h137v160l258 108v-268h149v-173h-149v-554v-14q0 -82 81 -82h6q28 0 78 8v-170q-79 -11 -155 -11q-134 0 -201 54t-67 176v14v579h-137zM362 0z" />
<glyph unicode="u" horiz-adv-x="944" d="M0 996zM121 241v20v720h258v-659v-20q0 -88 26 -116t68 -28q49 0 79 41t30 123v659h258v-981h-242v104q-108 -119 -237 -119q-103 0 -172 65q-68 66 -68 191zM481 1100zM615 0z" />
<glyph unicode="v" d="M59 981h258l138 -759l149 759h258l-238 -981h-342z" />
<glyph unicode="w" horiz-adv-x="1435" d="M48 981h258l108 -740l139 740h326l147 -751l104 751h254l-193 -981h-322l-147 743l-159 -743h-322z" />
<glyph unicode="x" d="M52 0l252 506l-228 475h258l129 -291l142 291h250l-253 -475l253 -506h-250l-142 314l-161 -314h-250z" />
<glyph unicode="y" d="M0 996zM52 981h258l144 -606l143 606h258l-356 -1337h-246l88 360zM454 1100z" />
<glyph unicode="z" horiz-adv-x="755" d="M0 996zM68 0v226l359 579h-331v176h581v-207l-355 -598h363v-176h-617zM398 1100z" />
<glyph unicode="{" horiz-adv-x="1020" d="M160 454v190q141 23 188 91q56 79 56 283v207q0 164 89 249t285 85h118v-190h-66q-109 0 -146 -27q-36 -27 -36 -135v-188q0 -219 -48 -308t-147 -155v-14q118 -80 156 -186q39 -105 39 -227v-52v-189v-33q0 -79 44 -104t172 -25h32v-190h-112q-211 0 -296 80 q-84 81 -84 257v207q0 261 -101 328q-47 30 -143 46z" />
<glyph unicode="|" horiz-adv-x="1020" d="M461 -505v2036h105v-2036h-105z" />
<glyph unicode="}" horiz-adv-x="1020" d="M126 -274h42q120 0 163 29q43 30 43 134v189q0 217 47 306q48 90 148 158v14q-124 81 -160 177q-35 96 -35 223v64v188q0 107 -44 134q-43 27 -132 27h-72v190h96q219 0 307 -85q89 -85 89 -251v-206q0 -265 101 -327q62 -38 143 -46v-190q-97 -17 -145 -50 q-99 -65 -99 -326v-207q0 -185 -91 -260q-90 -75 -325 -75h-76v190z" />
<glyph unicode="~" horiz-adv-x="2039" d="M415 538q94 141 175 188t171 47q108 0 210 -33q68 -21 216 -61t222 -40q61 0 119 33q58 34 116 101l34 -70q-35 -113 -130 -182q-95 -68 -197 -68q-59 0 -160 21t-311 83q-101 30 -176 30q-57 0 -124 -30q-66 -30 -134 -89z" />
<glyph unicode="&#xa1;" horiz-adv-x="604" d="M177 -419l29 1010h201l29 -1010h-259zM177 720v258h259v-258h-259z" />
<glyph unicode="&#xa2;" horiz-adv-x="982" d="M165 526v53v341q0 133 58 199t168 89v238h222v-238q139 -16 187 -103q48 -86 48 -193v-61h-264q0 131 -20 166q-20 36 -59 36q-33 0 -55 -27q-21 -27 -21 -99v-348v-80q0 -85 19 -117q19 -31 58 -31q47 0 62 38q16 38 16 106v87h264v-67q0 -283 -235 -319v-253h-222v253 q-123 22 -175 106q-51 84 -51 224z" />
<glyph unicode="&#xa3;" horiz-adv-x="982" d="M132 0v191h82v471h-82v191h82v188v75q0 162 88 229q89 67 234 67q188 0 258 -80t70 -234v-72h-247v72q0 71 -18 97q-17 26 -52 26q-37 0 -53 -25t-16 -86v-70v-187h198v-191h-198v-471h386v-191h-732z" />
<glyph unicode="&#xa4;" horiz-adv-x="982" d="M-49 308l133 133q-45 72 -60 133q-14 62 -14 121q0 72 16 135q17 63 58 134l-133 130l131 133l130 -127q62 38 131 60q70 22 154 22q81 0 147 -22q67 -21 124 -60l131 127l128 -133l-136 -130q80 -106 80 -269q0 -168 -78 -257l134 -130l-128 -128l-134 126 q-107 -85 -272 -85q-168 0 -278 85l-133 -126zM213 701q0 -123 80 -200t198 -77q117 0 197 79t80 199q0 116 -79 196q-78 81 -199 81q-118 0 -198 -80q-79 -79 -79 -198z" />
<glyph unicode="&#xa5;" horiz-adv-x="982" d="M30 1397h305l166 -578l168 578h288l-312 -868v-94h223v-92h-223v-74h223v-92h-223v-177h-288v177h-223v92h223v74h-223v92h223v94z" />
<glyph unicode="&#xa6;" horiz-adv-x="1020" d="M461 -452v922h105v-922h-105zM461 574v922h105v-922h-105z" />
<glyph unicode="&#xa7;" horiz-adv-x="982" d="M153 701q0 96 52 154q53 58 168 76q-105 47 -145 103t-40 131q0 106 82 178t247 72q109 0 228 -33v-160q-125 20 -214 20q-65 0 -102 -23t-37 -65q0 -53 84 -96q85 -42 157 -74q185 -85 185 -240q0 -196 -198 -230q108 -33 156 -93t48 -146q0 -129 -94 -207 q-94 -77 -281 -77q-124 0 -261 37v171q167 -35 253 -35q76 0 127 26q52 26 52 79q0 62 -73 96q-72 35 -199 87q-117 49 -156 108q-39 60 -39 141zM357 723q0 -88 139 -142q118 40 118 134t-135 138q-122 -30 -122 -130z" />
<glyph unicode="&#xa8;" horiz-adv-x="982" d="M223 1174v230h223v-230h-223zM506 1100zM565 1174v230h223v-230h-223z" />
<glyph unicode="&#xa9;" horiz-adv-x="1020" d="M69 1041q0 187 136 331t339 144q192 0 333 -139t141 -337q0 -188 -137 -332q-136 -143 -338 -143q-193 0 -334 138q-140 139 -140 338zM141 1040q0 -156 114 -280q114 -123 289 -123q161 0 281 116q121 117 121 288q0 155 -115 279q-114 124 -288 124q-170 0 -286 -119 q-116 -118 -116 -285zM292 1058q0 104 73 189t194 85q106 0 194 -74l-61 -65q-64 63 -134 63t-130 -54q-60 -53 -60 -147q0 -79 52 -140q52 -60 136 -60q80 0 140 74l57 -61q-89 -89 -196 -89q-110 0 -188 81q-77 82 -77 198z" />
<glyph unicode="&#xaa;" horiz-adv-x="831" d="M144 959q0 67 17 109q18 43 66 66q52 26 111 31q60 6 103 6h45v72q0 65 -68 65q-39 0 -58 -21q-19 -20 -19 -71h-181q0 102 57 149t187 47q131 0 195 -47t64 -185v-387h-161v98q-61 -113 -189 -113q-87 0 -128 45t-41 136zM321 971q0 -65 70 -65q44 0 69 28q26 28 26 75 v55h-33q-76 0 -104 -25t-28 -68z" />
<glyph unicode="&#xab;" d="M73 495l171 -372h201l-136 372l136 372h-220zM459 495l168 -372h204l-139 372l139 372h-211z" />
<glyph unicode="&#xac;" horiz-adv-x="1360" d="M208 648v146h922v-532h-146v386h-776z" />
<glyph unicode="&#xad;" horiz-adv-x="453" d="M74 470v189h297v-189h-297z" />
<glyph unicode="&#xae;" horiz-adv-x="1020" d="M69 1041q0 187 136 331t339 144q192 0 333 -139t141 -337q0 -188 -137 -332q-136 -143 -338 -143q-193 0 -334 138q-140 139 -140 338zM141 1040q0 -156 114 -280q114 -123 289 -123q161 0 281 116q121 117 121 288q0 155 -115 279q-114 124 -288 124q-165 0 -284 -119 q-118 -118 -118 -285zM392 803v505h164q154 0 154 -148q0 -99 -84 -133l92 -224h-95l-85 208h-70v-208h-76zM468 1087h91q39 0 57 19t18 52q0 74 -75 74h-91v-145z" />
<glyph unicode="&#xaf;" horiz-adv-x="1020" d="M0 1531v105h1020v-105h-1020z" />
<glyph unicode="&#xb0;" horiz-adv-x="982" d="M178 1096q0 145 81 230q81 86 235 86q143 0 229 -80q87 -80 87 -237q0 -150 -84 -233q-83 -83 -232 -83q-142 0 -229 80t-87 237zM334 1095q0 -78 41 -133q42 -55 119 -55q63 0 111 47q49 47 49 142q0 78 -42 133t-118 55q-64 0 -112 -48t-48 -141z" />
<glyph unicode="&#xb1;" horiz-adv-x="1360" d="M208 -39h918v-146h-918v146zM208 451v146h386v386h146v-386h386v-146h-386v-386h-146v386h-386z" />
<glyph unicode="&#xb2;" horiz-adv-x="642" d="M104 669v126q143 155 219 270q77 115 77 178q0 76 -61 76q-38 0 -48 -26q-9 -25 -9 -81h-165v36q0 187 226 187q125 0 173 -49q49 -49 49 -139q0 -91 -46 -182t-198 -243l-37 -37h294v-116h-474z" />
<glyph unicode="&#xb3;" horiz-adv-x="642" d="M101 850v34h165v-41q0 -66 64 -66q31 0 51 17q21 18 21 80q0 71 -23 91t-71 20h-43v116h60q72 0 72 114q0 104 -66 104q-28 0 -44 -13t-16 -79h-157v30q0 77 50 127q50 51 178 51q123 0 171 -54q49 -53 49 -159q0 -95 -34 -133q-34 -37 -108 -43q92 -11 119 -52 q28 -40 28 -116q0 -124 -61 -171q-61 -46 -167 -46q-138 0 -188 50t-50 139z" />
<glyph unicode="&#xb4;" horiz-adv-x="982" d="M357 1100l117 312h284l-189 -312h-212zM470 1100z" />
<glyph unicode="&#xb5;" horiz-adv-x="1208" d="M-119 -342l386 1323h298l-130 -434q-26 -87 -36 -131q-9 -43 -9 -79q0 -61 40 -103q41 -41 109 -41q67 0 118 49t92 194l159 545h300l-282 -981h-234l35 119q-73 -85 -130 -115t-120 -30q-124 0 -176 135l-133 -451h-287z" />
<glyph unicode="&#xb6;" horiz-adv-x="982" d="M105 1033q0 211 162 347q163 136 499 136h189v-78h-138v-1765h-79v1765h-98v-1765h-79v892q-253 43 -355 174q-101 131 -101 294z" />
<glyph unicode="&#xb8;" horiz-adv-x="982" d="M268 -401l174 297h183l-105 -297h-252zM470 0z" />
<glyph unicode="&#xb9;" horiz-adv-x="642" d="M148 1159v145q61 21 85 47q25 27 54 76h160v-758h-165v579q-63 -77 -134 -89z" />
<glyph unicode="&#xba;" horiz-adv-x="831" d="M149 1003v18v158q0 116 57 174q58 59 194 59q157 0 212 -56q56 -56 56 -163v-172q0 -144 -63 -194q-63 -49 -188 -49q-144 0 -211 57q-57 49 -57 168zM326 1002q0 -60 23 -78t61 -18q43 0 62 22t19 86v12v152q0 57 -17 81q-17 25 -67 25q-44 0 -63 -20q-18 -19 -18 -67 v-171v-24z" />
<glyph unicode="&#xbb;" d="M74 123l139 372l-139 372h211l161 -372l-168 -372h-204zM460 123l136 372l-136 372h220l152 -372l-171 -372h-201z" />
<glyph unicode="&#xbc;" horiz-adv-x="1360" d="M148 1159v145q61 21 85 47q25 27 54 76h160v-758h-165v579q-63 -77 -134 -89zM214 -80l665 1492h152l-665 -1492h-152zM676 164v150l199 450h232v-484h103v-116h-103v-158h-165v158h-266zM805 280h137v348z" />
<glyph unicode="&#xbd;" horiz-adv-x="1360" d="M123 1159v145q61 21 85 47q25 27 54 76h160v-758h-165v579q-63 -77 -134 -89zM189 -80l665 1492h152l-665 -1492h-152zM743 6v126q143 155 219 270q77 115 77 178q0 76 -61 76q-38 0 -48 -26q-9 -25 -9 -81h-165v36q0 187 226 187q125 0 173 -49q49 -49 49 -139 q0 -91 -46 -182t-198 -243l-37 -37h294v-116h-474z" />
<glyph unicode="&#xbe;" horiz-adv-x="1360" d="M101 850v34h165v-41q0 -66 64 -66q31 0 51 17q21 18 21 80q0 71 -23 91t-71 20h-43v116h60q72 0 72 114q0 104 -66 104q-28 0 -44 -13t-16 -79h-157v30q0 77 50 127q50 51 178 51q123 0 171 -54q49 -53 49 -159q0 -95 -34 -133q-34 -37 -108 -43q92 -11 119 -52 q28 -40 28 -116q0 -124 -61 -171q-61 -46 -167 -46q-138 0 -188 50t-50 139zM276 -80l665 1492h152l-665 -1492h-152zM742 164v150l199 450h232v-484h103v-116h-103v-158h-165v158h-266zM871 280h137v348z" />
<glyph unicode="&#xbf;" d="M136 -144q0 145 76 267q75 121 90 144q23 34 52 84q28 49 28 126v104h211v-151q0 -115 -37 -186q-38 -72 -96 -170q-65 -112 -65 -211q0 -72 19 -100q19 -29 57 -29q42 0 62 24q19 23 19 72v89h259v-93q0 -134 -85 -199q-86 -66 -250 -66h-22q-175 0 -246 83 q-72 82 -72 212zM353 715v258h259v-258h-259z" />
<glyph unicode="&#xc0;" horiz-adv-x="1133" d="M0 1412zM58 0l342 1397h344l342 -1397h-281l-63 305h-340l-63 -305h-281zM323 1828h295l106 -312h-223zM445 516h254l-127 625zM572 1516zM572 1516zM833 0z" />
<glyph unicode="&#xc1;" horiz-adv-x="1133" d="M0 1412zM58 0l342 1397h344l342 -1397h-281l-63 305h-340l-63 -305h-281zM445 516h254l-127 625zM459 1516l117 312h284l-189 -312h-212zM572 1516zM572 1516zM833 0z" />
<glyph unicode="&#xc2;" horiz-adv-x="1133" d="M0 1412zM58 0l342 1397h344l342 -1397h-281l-63 305h-340l-63 -305h-281zM307 1516l119 312h291l119 -312h-169l-94 183l-97 -183h-169zM445 516h254l-127 625zM572 1516zM572 1516zM833 0z" />
<glyph unicode="&#xc3;" horiz-adv-x="1133" d="M0 1412zM58 0l342 1397h344l342 -1397h-281l-63 305h-340l-63 -305h-281zM306 1520v88q0 192 124 192q47 0 122 -41t94 -41q18 0 23 13q6 14 6 36v33h158l-2 -87q-3 -107 -33 -150t-87 -43q-48 0 -119 43t-99 43q-23 0 -28 -14q-4 -14 -4 -56v-16h-155zM445 516h254 l-127 625zM572 1516zM572 1516zM833 0z" />
<glyph unicode="&#xc4;" horiz-adv-x="1133" d="M0 1412zM58 0l342 1397h344l342 -1397h-281l-63 305h-340l-63 -305h-281zM289 1590v230h223v-230h-223zM445 516h254l-127 625zM572 1516zM572 1516zM631 1590v230h223v-230h-223zM833 0z" />
<glyph unicode="&#xc5;" horiz-adv-x="1133" d="M0 1412zM58 0l342 1397h344l342 -1397h-281l-63 305h-340l-63 -305h-281zM366 1707q0 83 59 144q60 62 147 62t146 -62q60 -61 60 -144t-58 -145q-58 -61 -148 -61q-87 0 -147 59q-59 59 -59 147zM445 516h254l-127 625zM481 1707q0 -41 26 -66q27 -25 65 -25q32 0 61 23 q30 24 30 68q0 35 -26 63t-65 28q-38 0 -65 -26q-26 -25 -26 -65zM572 1516zM572 1516zM833 0z" />
<glyph unicode="&#xc6;" horiz-adv-x="1586" d="M31 0l520 1397h924v-211h-530l54 -364h467v-211h-437l59 -400h400v-211h-654l-44 305h-359l-110 -305h-290zM502 516h263l-66 581z" />
<glyph unicode="&#xc7;" horiz-adv-x="1057" d="M112 492v95v383q0 255 116 348q116 94 319 94q204 0 310 -91t106 -298v-72h-286q0 161 -33 205q-32 45 -96 45q-87 0 -119 -68q-31 -67 -31 -242v-295q0 -280 37 -340q38 -60 113 -60q76 0 110 51t34 195v48h286v-71q0 -225 -97 -330q-97 -104 -322 -104q-227 0 -337 104 q-110 105 -110 403zM312 -401l174 297h183l-105 -297h-252zM514 0zM514 0zM544 1516z" />
<glyph unicode="&#xc8;" horiz-adv-x="944" d="M0 1412zM138 0v1397h702v-211h-416v-364h403v-211h-403v-400h429v-211h-715zM267 1828h295l106 -312h-223zM516 1516zM516 1516zM604 0z" />
<glyph unicode="&#xc9;" horiz-adv-x="944" d="M0 1412zM138 0v1397h702v-211h-416v-364h403v-211h-403v-400h429v-211h-715zM403 1516l117 312h284l-189 -312h-212zM516 1516zM516 1516zM604 0z" />
<glyph unicode="&#xca;" horiz-adv-x="944" d="M0 1412zM138 0v1397h702v-211h-416v-364h403v-211h-403v-400h429v-211h-715zM251 1516l119 312h291l119 -312h-169l-94 183l-97 -183h-169zM516 1516zM516 1516zM604 0z" />
<glyph unicode="&#xcb;" horiz-adv-x="944" d="M0 1412zM138 0v1397h702v-211h-416v-364h403v-211h-403v-400h429v-211h-715zM233 1590v230h223v-230h-223zM516 1516zM516 1516zM575 1590v230h223v-230h-223zM604 0z" />
<glyph unicode="&#xcc;" horiz-adv-x="529" d="M0 1412zM19 1828h295l106 -312h-223zM125 0v1397h286v-1397h-286zM268 0zM268 1516zM268 1516z" />
<glyph unicode="&#xcd;" horiz-adv-x="529" d="M0 1412zM125 0v1397h286v-1397h-286zM155 1516l117 312h284l-189 -312h-212zM268 0zM268 1516zM268 1516z" />
<glyph unicode="&#xce;" horiz-adv-x="529" d="M0 1412zM3 1516l119 312h291l119 -312h-169l-94 183l-97 -183h-169zM125 0v1397h286v-1397h-286zM268 0zM268 1516zM268 1516z" />
<glyph unicode="&#xcf;" horiz-adv-x="529" d="M-15 1590v230h223v-230h-223zM0 1412zM125 0v1397h286v-1397h-286zM268 0zM268 1516zM268 1516zM327 1590v230h223v-230h-223z" />
<glyph unicode="&#xd0;" horiz-adv-x="1133" d="M31 596v215h112v586h372h45q257 0 360 -120q104 -119 104 -361v-392q0 -293 -99 -409q-98 -115 -363 -115h-47h-372v596h-112zM429 211h76h32q115 0 158 67t43 216v342q0 237 -53 293q-53 57 -170 57h-22h-64v-375h134v-215h-134v-385z" />
<glyph unicode="&#xd1;" horiz-adv-x="1171" d="M0 1412zM147 0v1397h415l254 -1157v1157h237v-1397h-415l-254 1151v-1151h-237zM355 1520v88q0 192 124 192q47 0 122 -41t94 -41q18 0 23 13q6 14 6 36v33h158l-2 -87q-3 -107 -33 -150t-87 -43q-48 0 -119 43t-99 43q-23 0 -28 -14q-4 -14 -4 -56v-16h-155zM600 0z M621 1516zM621 1516z" />
<glyph unicode="&#xd2;" horiz-adv-x="1133" d="M125 441v85v501q0 208 118 296q119 89 323 89q199 0 319 -87q121 -87 121 -305v-494v-70q0 -277 -112 -374q-111 -97 -329 -97q-217 0 -329 95q-111 95 -111 361zM317 1828h295l106 -312h-223zM411 451q0 -127 33 -191t122 -64q85 0 119 61q35 62 35 189v80v395 q0 174 -41 227t-114 53q-80 0 -117 -58t-37 -211v-406v-75zM566 1516zM566 1516z" />
<glyph unicode="&#xd3;" horiz-adv-x="1133" d="M125 441v85v501q0 208 118 296q119 89 323 89q199 0 319 -87q121 -87 121 -305v-494v-70q0 -277 -112 -374q-111 -97 -329 -97q-217 0 -329 95q-111 95 -111 361zM411 451q0 -127 33 -191t122 -64q85 0 119 61q35 62 35 189v80v395q0 174 -41 227t-114 53q-80 0 -117 -58 t-37 -211v-406v-75zM453 1516l117 312h284l-189 -312h-212zM566 1516zM566 1516z" />
<glyph unicode="&#xd4;" horiz-adv-x="1133" d="M125 441v85v501q0 208 118 296q119 89 323 89q199 0 319 -87q121 -87 121 -305v-494v-70q0 -277 -112 -374q-111 -97 -329 -97q-217 0 -329 95q-111 95 -111 361zM301 1516l119 312h291l119 -312h-169l-94 183l-97 -183h-169zM411 451q0 -127 33 -191t122 -64 q85 0 119 61q35 62 35 189v80v395q0 174 -41 227t-114 53q-80 0 -117 -58t-37 -211v-406v-75zM566 1516zM566 1516z" />
<glyph unicode="&#xd5;" horiz-adv-x="1133" d="M125 441v85v501q0 208 118 296q119 89 323 89q199 0 319 -87q121 -87 121 -305v-494v-70q0 -277 -112 -374q-111 -97 -329 -97q-217 0 -329 95q-111 95 -111 361zM300 1520v88q0 192 124 192q47 0 122 -41t94 -41q18 0 23 13q6 14 6 36v33h158l-2 -87q-3 -107 -33 -150 t-87 -43q-48 0 -119 43t-99 43q-23 0 -28 -14q-4 -14 -4 -56v-16h-155zM411 451q0 -127 33 -191t122 -64q85 0 119 61q35 62 35 189v80v395q0 174 -41 227t-114 53q-80 0 -117 -58t-37 -211v-406v-75zM566 1516zM566 1516z" />
<glyph unicode="&#xd6;" horiz-adv-x="1133" d="M125 441v85v501q0 208 118 296q119 89 323 89q199 0 319 -87q121 -87 121 -305v-494v-70q0 -277 -112 -374q-111 -97 -329 -97q-217 0 -329 95q-111 95 -111 361zM283 1590v230h223v-230h-223zM411 451q0 -127 33 -191t122 -64q85 0 119 61q35 62 35 189v80v395 q0 174 -41 227t-114 53q-80 0 -117 -58t-37 -211v-406v-75zM566 1516zM566 1516zM625 1590v230h223v-230h-223z" />
<glyph unicode="&#xd7;" horiz-adv-x="1360" d="M253 207l325 325l-325 326l98 98l325 -325l326 325l98 -98l-325 -326l325 -325l-98 -98l-326 325l-325 -325z" />
<glyph unicode="&#xd8;" horiz-adv-x="1133" d="M125 455v69v499q0 198 113 293q114 96 322 96q104 0 184 -21l44 137l89 -30l-47 -142q80 -40 128 -118t48 -261v-108v-398q0 -300 -116 -393t-329 -93q-111 0 -168 20l-50 -155l-89 30l50 154q-84 36 -132 135q-47 100 -47 286zM411 528q0 -72 5 -143l252 776 q-37 40 -103 40q-82 0 -118 -58t-36 -205v-410zM466 230q38 -34 100 -34q83 0 118 58q36 58 36 214v404q0 46 -4 122z" />
<glyph unicode="&#xd9;" horiz-adv-x="1133" d="M0 1412zM129 436v56v905h286v-910v-78q0 -143 44 -178q45 -35 98 -35q73 0 112 39q40 39 40 163v89v910h286v-905v-46q0 -275 -115 -368t-311 -93q-236 0 -338 102q-102 103 -102 349zM310 1828h295l106 -312h-223zM559 1516zM559 1516zM623 0z" />
<glyph unicode="&#xda;" horiz-adv-x="1133" d="M0 1412zM129 436v56v905h286v-910v-78q0 -143 44 -178q45 -35 98 -35q73 0 112 39q40 39 40 163v89v910h286v-905v-46q0 -275 -115 -368t-311 -93q-236 0 -338 102q-102 103 -102 349zM446 1516l117 312h284l-189 -312h-212zM559 1516zM559 1516zM623 0z" />
<glyph unicode="&#xdb;" horiz-adv-x="1133" d="M0 1412zM129 436v56v905h286v-910v-78q0 -143 44 -178q45 -35 98 -35q73 0 112 39q40 39 40 163v89v910h286v-905v-46q0 -275 -115 -368t-311 -93q-236 0 -338 102q-102 103 -102 349zM294 1516l119 312h291l119 -312h-169l-94 183l-97 -183h-169zM559 1516zM559 1516z M623 0z" />
<glyph unicode="&#xdc;" horiz-adv-x="1133" d="M0 1412zM129 436v56v905h286v-910v-78q0 -143 44 -178q45 -35 98 -35q73 0 112 39q40 39 40 163v89v910h286v-905v-46q0 -275 -115 -368t-311 -93q-236 0 -338 102q-102 103 -102 349zM276 1590v230h223v-230h-223zM559 1516zM559 1516zM618 1590v230h223v-230h-223z M623 0z" />
<glyph unicode="&#xdd;" horiz-adv-x="1057" d="M0 1412zM44 1397h313l172 -568l175 568h295l-327 -873v-524h-286v524zM409 1516l117 312h284l-189 -312h-212zM522 1516zM522 1516z" />
<glyph unicode="&#xde;" horiz-adv-x="1057" d="M129 0v1397h286v-240h159q226 0 316 -96t90 -319q0 -250 -109 -340q-109 -89 -297 -89h-159v-313h-286zM415 524h107q88 0 130 42q42 43 42 174q0 127 -41 166q-41 40 -131 40h-107v-422z" />
<glyph unicode="&#xdf;" horiz-adv-x="1020" d="M117 0v1039q0 222 95 303q96 81 304 81q196 0 280 -72q84 -71 84 -214q0 -74 -18 -116q-18 -41 -48 -74q-41 -46 -67 -81q-25 -35 -25 -71q0 -44 52 -114t82 -112q77 -105 95 -160t18 -120q0 -158 -89 -231q-88 -73 -264 -73q-78 0 -158 11v170q63 -8 93 -8q85 0 122 36 q38 36 38 105q0 43 -15 81q-14 39 -132 185q-100 122 -100 217q0 46 19 80t79 112t60 148q0 128 -122 128q-57 0 -91 -31q-34 -30 -34 -151v-96v-972h-258z" />
<glyph unicode="&#xe0;" d="M81 279q0 198 89 268q89 71 296 71h76v84q0 76 -22 98q-21 23 -63 23q-45 0 -70 -20q-24 -20 -24 -69v-35h-258v23q0 142 86 208t259 66q350 0 350 -294v-99v-603h-254v89q-54 -60 -109 -82q-54 -22 -124 -22q-118 0 -175 72t-57 222zM211 1412h295l106 -312h-223z M339 291q0 -133 90 -133q45 0 79 38q34 39 34 180v91h-31h-31q-78 0 -110 -48q-31 -48 -31 -128zM460 1100zM460 1100zM575 0z" />
<glyph unicode="&#xe1;" d="M81 279q0 198 89 268q89 71 296 71h76v84q0 76 -22 98q-21 23 -63 23q-45 0 -70 -20q-24 -20 -24 -69v-35h-258v23q0 142 86 208t259 66q350 0 350 -294v-99v-603h-254v89q-54 -60 -109 -82q-54 -22 -124 -22q-118 0 -175 72t-57 222zM339 291q0 -133 90 -133q45 0 79 38 q34 39 34 180v91h-31h-31q-78 0 -110 -48q-31 -48 -31 -128zM347 1100l117 312h284l-189 -312h-212zM460 1100zM460 1100zM575 0z" />
<glyph unicode="&#xe2;" d="M81 279q0 198 89 268q89 71 296 71h76v84q0 76 -22 98q-21 23 -63 23q-45 0 -70 -20q-24 -20 -24 -69v-35h-258v23q0 142 86 208t259 66q350 0 350 -294v-99v-603h-254v89q-54 -60 -109 -82q-54 -22 -124 -22q-118 0 -175 72t-57 222zM195 1100l119 312h291l119 -312 h-169l-94 183l-97 -183h-169zM339 291q0 -133 90 -133q45 0 79 38q34 39 34 180v91h-31h-31q-78 0 -110 -48q-31 -48 -31 -128zM460 1100zM460 1100zM575 0z" />
<glyph unicode="&#xe3;" d="M81 279q0 198 89 268q89 71 296 71h76v84q0 76 -22 98q-21 23 -63 23q-45 0 -70 -20q-24 -20 -24 -69v-35h-258v23q0 142 86 208t259 66q350 0 350 -294v-99v-603h-254v89q-54 -60 -109 -82q-54 -22 -124 -22q-118 0 -175 72t-57 222zM194 1104v88q0 192 124 192 q47 0 122 -41t94 -41q18 0 23 13q6 14 6 36v33h158l-2 -87q-3 -107 -33 -150t-87 -43q-48 0 -119 43t-99 43q-23 0 -28 -14q-4 -14 -4 -56v-16h-155zM339 291q0 -133 90 -133q45 0 79 38q34 39 34 180v91h-31h-31q-78 0 -110 -48q-31 -48 -31 -128zM460 1100zM460 1100z M575 0z" />
<glyph unicode="&#xe4;" d="M81 279q0 198 89 268q89 71 296 71h76v84q0 76 -22 98q-21 23 -63 23q-45 0 -70 -20q-24 -20 -24 -69v-35h-258v23q0 142 86 208t259 66q350 0 350 -294v-99v-603h-254v89q-54 -60 -109 -82q-54 -22 -124 -22q-118 0 -175 72t-57 222zM177 1174v230h223v-230h-223z M339 291q0 -133 90 -133q45 0 79 38q34 39 34 180v91h-31h-31q-78 0 -110 -48q-31 -48 -31 -128zM460 1100zM460 1100zM519 1174v230h223v-230h-223zM575 0z" />
<glyph unicode="&#xe5;" d="M81 279q0 198 89 268q89 71 296 71h76v84q0 76 -22 98q-21 23 -63 23q-45 0 -70 -20q-24 -20 -24 -69v-35h-258v23q0 142 86 208t259 66q350 0 350 -294v-99v-603h-254v89q-54 -60 -109 -82q-54 -22 -124 -22q-118 0 -175 72t-57 222zM254 1291q0 83 59 144q60 62 147 62 t146 -62q60 -61 60 -144t-58 -145q-58 -61 -148 -61q-87 0 -147 59q-59 59 -59 147zM339 291q0 -133 90 -133q45 0 79 38q34 39 34 180v91h-31h-31q-78 0 -110 -48q-31 -48 -31 -128zM369 1291q0 -41 26 -66q27 -25 65 -25q32 0 61 23q30 24 30 68q0 35 -26 63t-65 28 q-38 0 -65 -26q-26 -25 -26 -65zM460 1100zM460 1100zM575 0z" />
<glyph unicode="&#xe6;" horiz-adv-x="1360" d="M81 273q0 181 82 251q83 71 273 71h121v69q0 87 -25 123q-24 36 -76 36q-42 0 -70 -25q-27 -24 -27 -71v-43h-258v51q0 126 83 193q84 68 252 68q217 0 252 -146q52 146 262 146q180 0 253 -88q73 -87 73 -281v-183h-461v-103q0 -123 26 -153t75 -30q66 0 84 38 q18 39 18 119v42h258v-59q0 -313 -353 -313q-212 0 -249 154q-53 -154 -280 -154q-167 0 -240 73q-73 74 -73 215zM339 285q0 -127 100 -127q57 0 87 40q31 40 31 146v100h-78q-140 0 -140 -159zM815 595h203v76q0 98 -29 125q-28 27 -69 27q-105 0 -105 -145v-83z" />
<glyph unicode="&#xe7;" horiz-adv-x="831" d="M77 368v296q0 160 82 246t266 86q175 0 250 -87q76 -86 76 -256v-29h-258v58q0 93 -22 117q-21 24 -59 24q-30 0 -54 -23q-23 -22 -23 -142v-287q0 -53 4 -133q5 -80 69 -80h7q27 0 52 18q26 18 26 118v77h258v-83q0 -166 -97 -235q-96 -68 -248 -68q-74 0 -141 17 q-66 17 -123 78q-65 69 -65 288zM212 -401l174 297h183l-105 -297h-252zM414 0zM414 0zM425 1100z" />
<glyph unicode="&#xe8;" horiz-adv-x="868" d="M77 364v241q0 213 84 302q85 89 277 89q208 0 290 -84q83 -84 83 -332v-141h-476v-141q0 -88 29 -114t76 -26q62 0 87 37q26 37 26 130v17h258v-34q0 -187 -104 -255q-103 -68 -266 -68q-178 0 -271 74t-93 305zM198 1412h295l106 -312h-223zM335 590h218v117 q0 51 -27 83q-26 33 -81 33q-61 0 -86 -28q-24 -27 -24 -91v-114zM447 1100zM447 1100zM507 0z" />
<glyph unicode="&#xe9;" horiz-adv-x="868" d="M77 364v241q0 213 84 302q85 89 277 89q208 0 290 -84q83 -84 83 -332v-141h-476v-141q0 -88 29 -114t76 -26q62 0 87 37q26 37 26 130v17h258v-34q0 -187 -104 -255q-103 -68 -266 -68q-178 0 -271 74t-93 305zM334 1100l117 312h284l-189 -312h-212zM335 590h218v117 q0 51 -27 83q-26 33 -81 33q-61 0 -86 -28q-24 -27 -24 -91v-114zM447 1100zM447 1100zM507 0z" />
<glyph unicode="&#xea;" horiz-adv-x="868" d="M77 364v241q0 213 84 302q85 89 277 89q208 0 290 -84q83 -84 83 -332v-141h-476v-141q0 -88 29 -114t76 -26q62 0 87 37q26 37 26 130v17h258v-34q0 -187 -104 -255q-103 -68 -266 -68q-178 0 -271 74t-93 305zM182 1100l119 312h291l119 -312h-169l-94 183l-97 -183 h-169zM335 590h218v117q0 51 -27 83q-26 33 -81 33q-61 0 -86 -28q-24 -27 -24 -91v-114zM447 1100zM447 1100zM507 0z" />
<glyph unicode="&#xeb;" horiz-adv-x="868" d="M77 364v241q0 213 84 302q85 89 277 89q208 0 290 -84q83 -84 83 -332v-141h-476v-141q0 -88 29 -114t76 -26q62 0 87 37q26 37 26 130v17h258v-34q0 -187 -104 -255q-103 -68 -266 -68q-178 0 -271 74t-93 305zM164 1174v230h223v-230h-223zM335 590h218v117 q0 51 -27 83q-26 33 -81 33q-61 0 -86 -28q-24 -27 -24 -91v-114zM447 1100zM447 1100zM506 1174v230h223v-230h-223zM507 0z" />
<glyph unicode="&#xec;" horiz-adv-x="491" d="M-3 1412h295l106 -312h-223zM0 996zM117 0v981h258v-981h-258zM246 1100zM246 1100z" />
<glyph unicode="&#xed;" horiz-adv-x="491" d="M0 996zM117 0v981h258v-981h-258zM133 1100l117 312h284l-189 -312h-212zM246 1100zM246 1100z" />
<glyph unicode="&#xee;" horiz-adv-x="491" d="M-19 1100l119 312h291l119 -312h-169l-94 183l-97 -183h-169zM0 996zM117 0v981h258v-981h-258zM246 1100zM246 1100z" />
<glyph unicode="&#xef;" horiz-adv-x="491" d="M-37 1174v230h223v-230h-223zM0 996zM117 0v981h258v-981h-258zM246 1100zM246 1100zM305 1174v230h223v-230h-223z" />
<glyph unicode="&#xf0;" d="M93 356v315q0 160 80 242q81 83 233 83q45 0 73 -8q28 -7 72 -27q-30 96 -89 190l-172 -66l-52 114l138 56q-40 40 -90 81l177 76q34 -24 95 -84l194 79l52 -114l-156 -67q164 -213 164 -557v-322q0 -220 -113 -291t-252 -71q-166 0 -260 78q-94 79 -94 293zM351 358 q0 -131 26 -166q26 -34 79 -34q70 0 84 46t14 154v317q0 148 -94 148q-58 0 -84 -37q-25 -36 -25 -122v-306z" />
<glyph unicode="&#xf1;" horiz-adv-x="944" d="M121 0v981h254v-104q92 119 233 119q106 0 169 -62q63 -61 63 -203v-101v-630h-258v633v74q0 116 -91 116q-56 0 -84 -46q-28 -45 -28 -144v-633h-258zM215 1104v88q0 192 124 192q47 0 122 -41t94 -41q18 0 23 13q6 14 6 36v33h158l-2 -87q-3 -107 -33 -150t-87 -43 q-48 0 -119 43t-99 43q-23 0 -28 -14q-4 -14 -4 -56v-16h-155zM481 0zM481 1100zM481 1100z" />
<glyph unicode="&#xf2;" d="M93 332v72v228q0 211 95 287q95 77 259 77h19q150 0 248 -74t98 -290v-228v-79q0 -190 -99 -265q-98 -75 -255 -75q-196 0 -281 85q-84 86 -84 262zM204 1412h295l106 -312h-223zM351 322q0 -104 28 -134t67 -30h7q50 0 75 32q26 32 26 126v11v331q0 93 -24 129 q-23 36 -81 36q-49 0 -74 -35q-24 -35 -24 -128v-333v-5zM453 1100zM453 1100z" />
<glyph unicode="&#xf3;" d="M93 332v72v228q0 211 95 287q95 77 259 77h19q150 0 248 -74t98 -290v-228v-79q0 -190 -99 -265q-98 -75 -255 -75q-196 0 -281 85q-84 86 -84 262zM340 1100l117 312h284l-189 -312h-212zM351 322q0 -104 28 -134t67 -30h7q50 0 75 32q26 32 26 126v11v331q0 93 -24 129 q-23 36 -81 36q-49 0 -74 -35q-24 -35 -24 -128v-333v-5zM453 1100zM453 1100z" />
<glyph unicode="&#xf4;" d="M93 332v72v228q0 211 95 287q95 77 259 77h19q150 0 248 -74t98 -290v-228v-79q0 -190 -99 -265q-98 -75 -255 -75q-196 0 -281 85q-84 86 -84 262zM188 1100l119 312h291l119 -312h-169l-94 183l-97 -183h-169zM351 322q0 -104 28 -134t67 -30h7q50 0 75 32 q26 32 26 126v11v331q0 93 -24 129q-23 36 -81 36q-49 0 -74 -35q-24 -35 -24 -128v-333v-5zM453 1100zM453 1100z" />
<glyph unicode="&#xf5;" d="M93 332v72v228q0 211 95 287q95 77 259 77h19q150 0 248 -74t98 -290v-228v-79q0 -190 -99 -265q-98 -75 -255 -75q-196 0 -281 85q-84 86 -84 262zM187 1104v88q0 192 124 192q47 0 122 -41t94 -41q18 0 23 13q6 14 6 36v33h158l-2 -87q-3 -107 -33 -150t-87 -43 q-48 0 -119 43t-99 43q-23 0 -28 -14q-4 -14 -4 -56v-16h-155zM351 322q0 -104 28 -134t67 -30h7q50 0 75 32q26 32 26 126v11v331q0 93 -24 129q-23 36 -81 36q-49 0 -74 -35q-24 -35 -24 -128v-333v-5zM453 1100zM453 1100z" />
<glyph unicode="&#xf6;" d="M93 332v72v228q0 211 95 287q95 77 259 77h19q150 0 248 -74t98 -290v-228v-79q0 -190 -99 -265q-98 -75 -255 -75q-196 0 -281 85q-84 86 -84 262zM170 1174v230h223v-230h-223zM351 322q0 -104 28 -134t67 -30h7q50 0 75 32q26 32 26 126v11v331q0 93 -24 129 q-23 36 -81 36q-49 0 -74 -35q-24 -35 -24 -128v-333v-5zM453 1100zM453 1100zM512 1174v230h223v-230h-223z" />
<glyph unicode="&#xf7;" horiz-adv-x="1360" d="M208 451v146h943v-146h-943zM565 236q0 45 33 78q34 33 82 33q47 0 80 -33q34 -33 34 -79t-34 -79q-34 -32 -81 -32q-48 0 -81 32q-33 33 -33 80zM565 813q0 45 33 78q34 33 82 33q47 0 80 -33q34 -33 34 -79t-34 -79q-34 -32 -81 -32q-48 0 -81 32q-33 33 -33 80z" />
<glyph unicode="&#xf8;" d="M93 328v78v258q0 332 366 332q62 0 113 -13l35 117l64 -19l-34 -113q87 -33 131 -110t44 -232v-219v-83q0 -170 -87 -255q-87 -84 -281 -84q-73 0 -98 11l-48 -160l-64 19l46 152q-90 35 -139 103q-48 68 -48 218zM351 373q0 -59 3 -105l164 534q-28 21 -69 21 q-98 0 -98 -122v-328zM399 171q22 -13 54 -13q58 0 79 37q22 38 22 100v33v347z" />
<glyph unicode="&#xf9;" horiz-adv-x="944" d="M0 996zM121 241v20v720h258v-659v-20q0 -88 26 -116t68 -28q49 0 79 41t30 123v659h258v-981h-242v104q-108 -119 -237 -119q-103 0 -172 65q-68 66 -68 191zM232 1412h295l106 -312h-223zM481 1100zM481 1100zM615 0z" />
<glyph unicode="&#xfa;" horiz-adv-x="944" d="M0 996zM121 241v20v720h258v-659v-20q0 -88 26 -116t68 -28q49 0 79 41t30 123v659h258v-981h-242v104q-108 -119 -237 -119q-103 0 -172 65q-68 66 -68 191zM368 1100l117 312h284l-189 -312h-212zM481 1100zM481 1100zM615 0z" />
<glyph unicode="&#xfb;" horiz-adv-x="944" d="M0 996zM121 241v20v720h258v-659v-20q0 -88 26 -116t68 -28q49 0 79 41t30 123v659h258v-981h-242v104q-108 -119 -237 -119q-103 0 -172 65q-68 66 -68 191zM216 1100l119 312h291l119 -312h-169l-94 183l-97 -183h-169zM481 1100zM481 1100zM615 0z" />
<glyph unicode="&#xfc;" horiz-adv-x="944" d="M0 996zM121 241v20v720h258v-659v-20q0 -88 26 -116t68 -28q49 0 79 41t30 123v659h258v-981h-242v104q-108 -119 -237 -119q-103 0 -172 65q-68 66 -68 191zM198 1174v230h223v-230h-223zM481 1100zM481 1100zM540 1174v230h223v-230h-223zM615 0z" />
<glyph unicode="&#xfd;" d="M0 996zM52 981h258l144 -606l143 606h258l-356 -1337h-246l88 360zM341 1100l117 312h284l-189 -312h-212zM454 1100zM454 1100z" />
<glyph unicode="&#xfe;" d="M97 -356v1768h258v-520q72 104 211 104q250 0 250 -308v-55v-284q0 -210 -65 -287q-64 -77 -171 -77q-56 0 -114 18q-57 19 -111 71v-430h-258zM355 361q0 -133 33 -168t74 -35q58 0 77 49q19 50 19 150v35v203q0 121 -18 174q-17 54 -80 54q-60 0 -83 -56 q-22 -56 -22 -167v-239z" />
<glyph unicode="&#xff;" d="M0 996zM52 981h258l144 -606l143 606h258l-356 -1337h-246l88 360zM171 1174v230h223v-230h-223zM454 1100zM454 1100zM513 1174v230h223v-230h-223z" />
<glyph unicode="&#x152;" horiz-adv-x="1586" d="M125 469v64v367q0 272 98 388q99 116 361 116q62 0 191 -4q129 -3 227 -3h481v-211h-418v-357h400v-211h-400v-407h431v-211h-494q-70 0 -186 -4q-115 -3 -201 -3q-284 0 -387 108q-103 109 -103 368zM411 473q0 -145 57 -207t205 -62q33 0 106 8v973q-44 8 -116 8 q-141 0 -197 -65q-55 -65 -55 -240v-356v-59z" />
<glyph unicode="&#x153;" horiz-adv-x="1360" d="M93 372v297q0 188 91 257q92 70 239 70q114 0 176 -33q63 -33 97 -116q36 77 98 113q63 36 163 36q154 0 235 -77q81 -76 81 -285v-195h-446v-170q0 -111 94 -111q61 0 77 43q17 43 17 98v43h258v-58q0 -150 -82 -225q-82 -74 -243 -74q-113 0 -169 33q-56 34 -83 101 q-40 -76 -108 -105q-67 -29 -161 -29q-183 0 -259 89q-75 90 -75 298zM351 363q0 -143 28 -174q29 -31 82 -31q56 0 82 40t26 151v38v281q0 155 -112 155q-106 0 -106 -157v-279v-24zM827 590h188v110q0 123 -95 123q-93 0 -93 -139v-94z" />
<glyph unicode="&#x178;" horiz-adv-x="1057" d="M0 1412zM44 1397h313l172 -568l175 568h295l-327 -873v-524h-286v524zM239 1590v230h223v-230h-223zM522 1516zM522 1516zM581 1590v230h223v-230h-223z" />
<glyph unicode="&#x2c6;" horiz-adv-x="982" d="M238 1100l119 312h291l119 -312h-169l-94 183l-97 -183h-169zM503 1100z" />
<glyph unicode="&#x2dc;" horiz-adv-x="982" d="M253 1104v88q0 192 124 192q47 0 122 -41t94 -41q18 0 23 13q6 14 6 36v33h158l-2 -87q-3 -107 -33 -150t-87 -43q-48 0 -119 43t-99 43q-23 0 -28 -14q-4 -14 -4 -56v-16h-155zM519 1100z" />
<glyph unicode="&#x2000;" horiz-adv-x="956" />
<glyph unicode="&#x2001;" horiz-adv-x="1913" />
<glyph unicode="&#x2002;" horiz-adv-x="956" />
<glyph unicode="&#x2003;" horiz-adv-x="1913" />
<glyph unicode="&#x2004;" horiz-adv-x="637" />
<glyph unicode="&#x2005;" horiz-adv-x="478" />
<glyph unicode="&#x2006;" horiz-adv-x="318" />
<glyph unicode="&#x2007;" horiz-adv-x="318" />
<glyph unicode="&#x2008;" horiz-adv-x="239" />
<glyph unicode="&#x2009;" horiz-adv-x="382" />
<glyph unicode="&#x200a;" horiz-adv-x="106" />
<glyph unicode="&#x2010;" horiz-adv-x="453" d="M74 470v189h297v-189h-297z" />
<glyph unicode="&#x2011;" horiz-adv-x="453" d="M74 470v189h297v-189h-297z" />
<glyph unicode="&#x2012;" horiz-adv-x="453" d="M74 470v189h297v-189h-297z" />
<glyph unicode="&#x2013;" horiz-adv-x="982" d="M80 470v177h832v-177h-832z" />
<glyph unicode="&#x2014;" horiz-adv-x="1360" d="M93 470v177h1174v-177h-1174z" />
<glyph unicode="&#x2018;" horiz-adv-x="453" d="M72 936l133 461h179l-57 -461h-255z" />
<glyph unicode="&#x2019;" horiz-adv-x="453" d="M89 936l57 461h255l-133 -461h-179z" />
<glyph unicode="&#x201a;" horiz-adv-x="453" d="M89 -196l57 461h255l-133 -461h-179z" />
<glyph unicode="&#x201c;" horiz-adv-x="793" d="M74 936l133 461h179l-57 -461h-255zM401 936l133 461h179l-57 -461h-255z" />
<glyph unicode="&#x201d;" horiz-adv-x="793" d="M86 936l57 461h255l-133 -461h-179zM413 936l57 461h255l-133 -461h-179z" />
<glyph unicode="&#x201e;" horiz-adv-x="793" d="M86 -196l57 461h255l-133 -461h-179zM413 -196l57 461h255l-133 -461h-179z" />
<glyph unicode="&#x2022;" horiz-adv-x="1020" d="M139 734q0 153 108 262q109 109 264 109q153 0 262 -109t109 -263t-111 -263q-110 -108 -261 -108t-261 108q-110 109 -110 264z" />
<glyph unicode="&#x2026;" horiz-adv-x="1360" d="M112 0v250h236v-250h-236zM558 0v250h236v-250h-236zM1004 0v250h236v-250h-236z" />
<glyph unicode="&#x202f;" horiz-adv-x="382" />
<glyph unicode="&#x2039;" horiz-adv-x="491" d="M76 495l168 -372h204l-139 372l139 372h-211z" />
<glyph unicode="&#x203a;" horiz-adv-x="491" d="M70 123l139 372l-139 372h211l161 -372l-168 -372h-204z" />
<glyph unicode="&#x205f;" horiz-adv-x="478" />
<glyph unicode="&#x20ac;" horiz-adv-x="982" d="M4 520l41 149h107v104h-148l41 149h107v67q0 239 108 331t309 92q187 0 289 -81q102 -80 102 -293v-45h-259v39q0 169 -138 169q-80 0 -100 -70q-19 -70 -19 -166v-43h297l-41 -149h-256v-104h238l-41 -149h-197v-47q0 -145 25 -211q26 -66 109 -66q56 0 91 36 q36 36 36 149v38h259v-58q0 -224 -106 -300q-105 -76 -287 -76q-246 0 -333 121q-86 121 -86 355v59h-148z" />
<glyph unicode="&#x2122;" horiz-adv-x="1246" d="M74 1299v84h382v-84h-149v-526h-84v526h-149zM530 773v610h160l110 -472l102 472h160v-610h-84v550l-124 -550h-107l-122 550h-11v-550h-84z" />
<glyph unicode="&#x25fc;" horiz-adv-x="980" d="M0 0v980h980v-980h-980z" />
</font>
</defs>
</svg>
